Статистика раздачи
Размер:  12,65 GB   |    Зарегистрирован:  5 месяцев 5 дней   |    Скачан:  0 раз

Полного источника не было: Никогда

Личеров:  1  [  0 KB/s  ]  
 
   
 
 

soda ®

Пол:
Не указан
Стаж:
5 месяцев 6 дней
Сообщений:
205

Стич! / Stitch!
первый сезон
Страна: Корея Южная, Япония, Китай
Год выпуска: 2008 г.
Жанр: фантастика, комедия
Тип: TV
Продолжительность: 22 серии по 00:21:07
Режиссер: Масами Хата, Ясуо Ивамото, Томохико Ито
Студия: Mad House Ltd., Walt Disney Television International Japan--Описание: В центре сюжета мультсериала — история о веселом неугомонном инопланетянине по имени Стич. Он — результат уникального эксперимента, в котором использованы гены самых сильных и опасных существ галактики. К счастью, Стич умеет направлять разрушительную энергию в мирное русло.
Оказавшись на одном из японских островов, он встречает такую же непоседливую, как и он сам, школьницу Юну. Дружба с девочкой помогает Стичу побороть вредные привычки и совершить множество добрых поступков. Теперь, объединив усилия, неразлучная парочка способна не только навести порядок на острове, но и спасти планету от нашествия пришельцев.
--Релиз: -- --Качество: WEBRip
Тип релиза: Без хардсаба
Формат видео: MKV
Релиз/Автор рипа: Bobropandavar
Совместимость с бытовыми плеерами: Нет
Видео: AVC (H264) 1280x720, 25 fps, 3700 Kbps, 8-bit
Аудио: Dolby AC3, 192 Kbps, 48.0 КHz, 2 channels Язык Русский (в составе контейнера)

Перевод: озвучка(дубляж)

Подробные тех. данные

General
Unique ID : 222807143783565998975581395799141541869 (0xA79F18522830A29F81B22500385867ED)
Complete name : M:\Stich! 10+.mkv
Format : Matroska
Format version : Version 2
File size : 588 MiB
Duration : 21mn 8s
Overall bit rate : 3 893 Kbps
Encoded date : UTC 2015-08-15 03:24:34
Writing application : mkvmerge v5.5.0 ('Healer') built on Apr 24 2012 23:47:03
Writing library : libebml v1.2.3 + libmatroska v1.3.0
Video
ID : 1
Format : AVC
Format/Info : Advanced Video Codec
Format profile : High@L4.1
Format settings, CABAC : Yes
Format settings, ReFrames : 9 frames
Codec ID : V_MPEG4/ISO/AVC
Duration : 21mn 8s
Bit rate : 3 700 Kbps
Width : 1 280 pixels
Height : 720 pixels
Display aspect ratio : 16:9
Frame rate mode : Constant
Frame rate : 25.000 fps
Color space : YUV
Chroma subsampling : 4:2:0
Bit depth : 8 bits
Scan type : Progressive
Bits/(Pixel*Frame) : 0.161
Stream size : 548 MiB (93%)
Writing library : x264 core 146 r2538 121396c
Encoding settings : cabac=1 / ref=9 / deblock=1:-1:-1 / analyse=0x3:0x133 / me=umh / subme=10 / psy=1 / psy_rd=1.00:0.10 / mixed_ref=1 / me_range=36 / chroma_me=1 / trellis=2 / 8x8dct=1 / cqm=0 / deadzone=21,11 / fast_pskip=0 / chroma_qp_offset=-3 / threads=6 / lookahead_threads=1 / sliced_threads=0 / nr=0 / decimate=0 / interlaced=0 / bluray_compat=0 / constrained_intra=0 / bframes=11 / b_pyramid=2 / b_adapt=2 / b_bias=0 / direct=3 / weightb=1 / open_gop=0 / weightp=2 / keyint=250 / keyint_min=25 / scenecut=40 / intra_refresh=0 / rc=2pass / mbtree=0 / bitrate=3700 / ratetol=1.0 / qcomp=0.60 / qpmin=0 / qpmax=69 / qpstep=4 / cplxblur=20.0 / qblur=0.5 / ip_ratio=1.40 / pb_ratio=1.30 / aq=1:1.00
Default : Yes
Forced : No
Color primaries : BT.709
Transfer characteristics : BT.709
Matrix coefficients : BT.709
Color range : Limited
Audio
ID : 2
Format : AC-3
Format/Info : Audio Coding 3
Mode extension : CM (complete main)
Format settings, Endianness : Big
Codec ID : A_AC3
Duration : 21mn 8s
Bit rate mode : Constant
Bit rate : 192 Kbps
Channel(s) : 2 channels
Channel positions : Front: L R
Sampling rate : 48.0 KHz
Bit depth : 16 bits
Compression mode : Lossy
Stream size : 29.0 MiB (5%)
Default : Yes
Forced : No

Список эпизодов

01. Ичариба чодей (Ichariba chodei)
02. Счётчик добрых дел (The Good Deed Counter)
03. Киджимуна (Kijimunaa)
04. Боджо / Возвращение Феликса (Bojo / Felix redux)
05. Опыт с электричеством (An electrifying experience)
06. Полёт ангела (Angel's flygh)
07. Цыпа (Babeechick)
08. Стич и Стичи (Stitch and Stitches)
09. Варрачи (Warracchi)
10. Халл и Хаск / Фокси Беж (Hull and Husk / Foxy Beige)
11. Стич и Санта (Stitch and Santa)
12. Дамачи (Damacchi)
13. Химамуши / Ни дождь ни слякоть (Himamushi / Neither rain nor sleet)
14. Стич - приглашённая звезда (Special guest star Stitch)
15. Стич поёт! (Stitch Sings!)
16. Вверх тормашками (Topsy-Turvy)
17. Праздник-сюрприз / Рисовые шарики Рубена (The surprise party / Reuben's rice balls)
18. Пещеры-близнецы (The Twin Caverns)
19. Пилоло (Pilolo)
20. Стич против Пенни (Stitch vs. Penny)
21. Стич против Хомяксвиля Часть 1 (Stitch vs. Hamsterviel Pt. I)
22. Стич против Хомяксвиля Часть 2 (Stitch vs. Hamsterviel Pt. II)

Отличия

http://cybertorrent.ru/viewtopic.php?t=4240575 - HD раздача
[cybertorrent.ru].t2437.torrent 
Торрент: Зарегистрирован [ 2018-02-16 11:35 ] · 0697C10BDBB982E062D2BC071E6139B5451CA113

Скачать .torrent

Скачать

34 KB

Статус: проверено
Скачан: 0 раз
Размер: 12,65 GB
Профиль [ЛС]
Показать сообщения:    

Текущее время: 21-Июл 13:07

Часовой пояс: UTC ± 0



Вы не можете начинать темы
Вы не можете отвечать на сообщения
Вы не можете редактировать свои сообщения
Вы не можете удалять свои сообщения
Вы не можете голосовать в опросах
Вы не можете прикреплять файлы к сообщениям
Вы можете скачивать файлы