Статистика раздачи
Размер:  2,94 GB   |    Зарегистрирован:  5 месяцев 5 дней   |    Скачан:  0 раз

Полного источника не было: Никогда

 
   
 
 

irkutsk ®

Пол:
Не указан
Стаж:
5 месяцев 6 дней
Сообщений:
620

-Южный Парк / South ParkСезон 19, Серии 01-10-- Год выпуска: 2015
Страна: США
Жанр: комедия, мультсериал
Продолжительность: ~ 00:20:00 x 10
Перевод: Профессиональный двухголосый закадровый [Кубик в Кубе]
Субтитры: отсутствуют-Режиссёр: Мэтт Стоун, Трей Паркер-Описание: Южный Парк / South Park — американский мультсериал, созданный Мэттом Стоуном и Треем Паркером. Иногда название переводится также как «Саут-Парк» или «Саус-Парк». Выпускается кабельным телеканалом Comedy Central с 1997 года. Основу сюжета составляют приключения четырёх мальчиков и их друзей, живущих в маленьком городке Саут-Парк, штат Колорадо. Сериал высмеивает недостатки американской культуры и текущие мировые события, а также подвергает критике множество глубоких убеждений и табу посредством пародии и чёрного юмора. «Южный Парк» выходит поздно вечером и позиционируется как мультфильм для взрослых.-[ Все раздачи сериала ] | [ Сэмпл ]-Качество: WEB-DLRip
Формат: AVI
Видео: 720x400, 23.976 fps, XviD 65, ~1500 kbps, 0.217 bit/pixel
Аудио 1: AC3, 48 kHz, 2 ch, 192 kbps [Русский, Кубик в Кубе]
Аудио 2: AC3, 48 kHz, 2 ch, 192 kbps [Английский]
-

MI

General
Complete name : South.Park.s19e01.WEB-DLRip.Rus.DVO.Eng.avi
Format : AVI
Format/Info : Audio Video Interleave
File size : 301 MiB
Duration : 22mn 9s
Overall bit rate : 1 898 Kbps
Writing application : VirtualDubMod 1.5.10.2 (build 2540/release)
Writing library : VirtualDubMod build 2540/release
Video
ID : 0
Format : MPEG-4 Visual
Format profile : Advanced Simple@L5
Format settings, BVOP : 1
Format settings, QPel : No
Format settings, GMC : No warppoints
Format settings, Matrix : Default (MPEG)
Codec ID : XVID
Codec ID/Hint : XviD
Duration : 22mn 9s
Bit rate : 1 500 Kbps
Width : 720 pixels
Height : 400 pixels
Display aspect ratio : 16:9
Frame rate : 23.976 fps
Color space : YUV
Chroma subsampling : 4:2:0
Bit depth : 8 bits
Scan type : Progressive
Compression mode : Lossy
Bits/(Pixel*Frame) : 0.217
Stream size : 238 MiB (79%)
Writing library : XviD 65
Audio #1
ID : 1
Format : AC-3
Format/Info : Audio Coding 3
Mode extension : CM (complete main)
Format settings, Endianness : Big
Codec ID : 2000
Duration : 22mn 9s
Bit rate mode : Constant
Bit rate : 192 Kbps
Channel(s) : 2 channels
Channel positions : Front: L R
Sampling rate : 48.0 KHz
Bit depth : 16 bits
Compression mode : Lossy
Stream size : 30.4 MiB (10%)
Alignment : Split accross interleaves
Interleave, duration : 42 ms (1.00 video frame)
Interleave, preload duration : 500 ms
Audio #2
ID : 2
Format : AC-3
Format/Info : Audio Coding 3
Mode extension : CM (complete main)
Format settings, Endianness : Big
Codec ID : 2000
Duration : 22mn 9s
Bit rate mode : Constant
Bit rate : 192 Kbps
Channel(s) : 2 channels
Channel positions : Front: L R
Sampling rate : 48.0 KHz
Bit depth : 16 bits
Compression mode : Lossy
Stream size : 30.4 MiB (10%)
Alignment : Split accross interleaves
Interleave, duration : 42 ms (1.00 video frame)
Interleave, preload duration : 500 ms
-
-

Внимание! Раздача ведётся путём добавления новых серий

Внимание! Раздача ведётся путём добавления новых серий; при каждом добавлении создётся новый торрент. Чтобы
начать докачку новой серии, пользователям необходимо сделать следующее:
  • Остановить скачивание.
  • Удалить старый торрент у себя из клиента (старые серии удалять не надо).
  • Скачать новый торрент и запустить его у себя в клиенте вместо старого, при этом указать клиенту путь в старую папку куда и
    должно происходить скачивание новых серий.
    Ваш клиент при этом должен произвести хеширование (проверку) старой папки (если не производит сам - помогите ему сделать
    это), и будет докачивать только те серии которых у вас ещё нет. Старые серии при этом не удаляются, а продолжают раздаваться!
    Eсли вы уже удалили старые серии, то предотвратить повторную закачку старых серий можно, отжав галочку в соответсвующих местах при
    запуске нового торрента. По возможности, желательно не удалять старые серии как можно дольше чтобы релизёр не столько продолжал
    раздавать старые серии, а смог сконцентрироваться на новых.
  • -Добавлена 10-я серия-
    [cybertorrent.ru].t2438.torrent 
    Торрент: Зарегистрирован [ 2018-02-16 11:35 ] · 2CEBFF269980C5BD7BA3943B642ED00507184BC6

    Скачать .torrent

    Скачать

    16 KB

    Статус: проверено
    Скачан: 0 раз
    Размер: 2,94 GB
    Профиль [ЛС]
    Показать сообщения:    

    Текущее время: 21-Июл 13:31

    Часовой пояс: UTC ± 0



    Вы не можете начинать темы
    Вы не можете отвечать на сообщения
    Вы не можете редактировать свои сообщения
    Вы не можете удалять свои сообщения
    Вы не можете голосовать в опросах
    Вы не можете прикреплять файлы к сообщениям
    Вы можете скачивать файлы