Статистика раздачи
Размер:  945 MB   |    Зарегистрирован:  3 месяца 6 дней   |    Скачан:  0 раз

Полного источника не было: Никогда

Личеров:  7  [  0 KB/s  ]  
 
   
 
 

lopster ®

Пол:
Не указан
Стаж:
3 месяца 6 дней
Сообщений:
612

Мама всегда рядом
Жанр: Триллер, драма, короткометражный
Год выпуска: 2016
Продолжительность: 00:34:28
Режиссёр: Евгений Пузыревский
В ролях: Александра Харитонова, Ангелина Стречина, Денис Шведов ("Майор", "Измены", "Мажор" и др.)
Композитор: Антон Завьялов (группа "25/17", "Лёд9")
Описание: Поздней ночью в загородный дом врывается отчаянная женщина с ружьём и с порога стреляет в хозяина. Но нападавшая не знает, что мужчина в доме не один.
Возраст: 18+
Качество видео: WEB-DLRip
Формат видео: Mkv
Видео: AVC/H.264, 1920x804, ~3641 Kbps
Аудио: AC3, 2 ch, 192 Kbps

MediaInfo

Общее
Формат : Matroska
Версия формата : Version 4 / Version 2
Размер файла : 945 Мбайт
Продолжительность : 34 м. 27 с.
Общий поток : 3835 Кбит/сек
Дата кодирования : UTC 2017-03-25 08:07:58
Программа кодирования : mkvmerge v9.9.0 ('Pick Up') 64bit
Библиотека кодирования : libebml v1.3.4 + libmatroska v1.4.5 / Lavf57.25.100
Видео
Идентификатор : 1
Формат : AVC
Формат/Информация : Advanced Video Codec
Профиль формата : High@L4
Параметр CABAC формата : Да
Параметр ReFrames формата : 5 кадров
Идентификатор кодека : V_MPEG4/ISO/AVC
Продолжительность : 34 м. 27 с.
Битрейт : 3641 Кбит/сек
Ширина : 1920 пикселей
Высота : 804 пикселя
Соотношение сторон : 2,40:1
Режим частоты кадров : Постоянный
Частота кадров : 24,000 кадра/сек
Цветовое пространство : YUV
Субдискретизация насыщенности : 4:2:0
Битовая глубина : 8 бит
Тип развёртки : Прогрессивная
Бит/(Пиксели*Кадры) : 0.098
Размер потока : 898 Мбайт (95%)
Default : Да
Forced : Нет
Цветовой диапазон : Limited
Основные цвета : BT.709
Характеристики трансфера : BT.709
Коэффициенты матрицы : BT.709
Аудио
Идентификатор : 2
Формат : AC-3
Формат/Информация : Audio Coding 3
Параметр Endianness формата : Big
Идентификатор кодека : A_AC3
Продолжительность : 34 м. 27 с.
Вид битрейта : Постоянный
Битрейт : 192 Кбит/сек
Каналы : 2 канала
Расположение каналов : Front: L R
Частота : 48,0 КГц
Частота кадров : 31,250 кадров/сек (1536 spf)
Битовая глубина : 16 бит
Метод сжатия : С потерями
Задержка видео : -83 мс.
Размер потока : 47,3 Мбайт (5%)
ServiceKind/String : Complete Main
Default : Да
Forced : Нет
Настройки программы : cabac=1 / ref=5 / deblock=1:0:0 / analyse=0x3:0x113 / me=hex / subme=8 / psy=1 / psy_rd=1.00:0.00 / mixed_ref=1 / me_range=16 / chroma_me=1 / trellis=2 / 8x8dct=1 / cqm=0 / deadzone=21,11 / fast_pskip=1 / chroma_qp_offset=-2 / threads=25 / lookahead_threads=4 / sliced_threads=0 / nr=0 / decimate=1 / interlaced=0 / bluray_compat=0 / stitchable=1 / constrained_intra=0 / bframes=3 / b_pyramid=2 / b_adapt=1 / b_bias=0 / direct=3 / weightb=1 / open_gop=0 / weightp=2 / keyint=infinite / keyint_min=24 / scenecut=40 / intra_refresh=0 / rc_lookahead=50 / rc=crf / mbtree=1 / crf=20.0 / qcomp=0.60 / qpmin=5 / qpmax=69 / qpstep=4 / vbv_maxrate=4950 / vbv_bufsize=13500 / crf_max=0.0 / nal_hrd=none / filler=0 / ip_ratio=1.40 / aq=1:1.00

Скриншот c названием фильма

Скриншоты


Продолжение фильма "Мама всегда рядом"

Короткометражный фильм "Мама всегда рядом" является частью будущего полнометражного фильма "Семейный ужин".
Фильм будет состоять из трех взаимосвязанных историй, действие которых развивается в 30х, в 90х и в наше время.
После загадочной смерти матери, молодая девушка переезжает жить к отцу, с которым не виделась много лет. Она изо всех сил пытается стать частью новой семьи, но её мачеха совершенно уверенна, что в девушке прячется жестокий убийца.
У одинокой старушки страдающей провалами в памяти, объявляется сын и просит несколько дней присмотреть за семилетней внучкой.  Сможет ли женщина обрести семью, если она их даже не помнит, а за её внучкой охотятся все бандиты города?
Поздней ночью в загородный дом врывается отчаянная женщина с ружьём и с порога стреляет в хозяина. Но нападавшая не знает, что мужчина в доме не один.
[cybertorrent.ru].t244.torrent 
Торрент: Зарегистрирован [ 2018-02-15 15:34 ] · 8F71C43A9F1E084630F93295811DF519F7830C73

Скачать .torrent

Скачать

19 KB

Статус: проверено
Скачан: 0 раз
Размер: 945 MB
Профиль [ЛС]
Показать сообщения:    

Текущее время: 21-Май 18:53

Часовой пояс: UTC ± 0



Вы не можете начинать темы
Вы не можете отвечать на сообщения
Вы не можете редактировать свои сообщения
Вы не можете удалять свои сообщения
Вы не можете голосовать в опросах
Вы не можете прикреплять файлы к сообщениям
Вы можете скачивать файлы