Статистика раздачи
Размер:  5,95 GB   |    Зарегистрирован:  9 месяцев 1 день   |    Скачан:  0 раз

Полного источника не было: Никогда

 
   
 
 

DR_KTO ®

Пол:
Не указан
Стаж:
9 месяцев 2 дня
Сообщений:
105

Симпсоны / The Simpsons
Страна: США
Жанр: мультсериал
Продолжительность: 22~00:22:00
Год выпуска: 2014
Перевод: Профессиональный (многоголосый закадровый) 2х2
Русские субтитры: нет
Режиссёр: Мэтт Гроунинг / Matt Groening
Роли озвучивали: Дэн Кастелланета, Джули Кавнер, Нэнси Картрайт, Ярдли Смит, Гарри Ширер, Хэнк Азария, Памела Хейден, Тресс МакНилл, Карл Видерготт, Мэгги Росвэлл
Описание: Симпсоны живут в вымышленном городе Спрингфилд, со своим обществом и историей. Гомер - отец семейства, который дает плохие советы и работает инспектором безопасности на атомной электростанции; Мардж - любящая мать и жена, старается сохранить спокойствие в семье; Барт - 10 летний хулиган; Лиза - философский 8-летний ребенок; и Мэгги - младенец, который общается посредством соски.
Список серий:
01. Clown in the Dumps
02. The Wreck of the Relationship
03. Super Franchise Me
04. Treehouse of Horror XXV
05. Opposites A-Frack
06. Simpsorama
07. Blazed and Confused
08. Covercraft
09. I Won't Be Home for Christmas
10. The Man Who Came to Be Dinner
11. Bart's New Friend
12. The Musk Who Fell To Earth
13. Walking Big & Tall
14. My Fare Lady
15. The Princess Guide
16. Sky Police
17. Waiting for Duffman
18. Peeping Mom
19. The Kids Are All Fight
20. Let's Go Fly a Coot
21. Bull-E
22. Mathlete's Feat
Подобные и альтернативные раздачи
Семпл: http://multi-up.com/1069069
Качество: WEB-DLRip
Формат: AVI
Видео: XviD, 1200 Кбит/с, 720х400, 23.976 fps
Аудио 1: Русский AC3, 48 kHz, 2.0 ch, ~192.00 kbps
Аудио 2: Английский AC3, 48 kHz, 6.0 ch, ~384.00 kbps
Субтитры: нет

Подробные технические данные

S26E01.Clown.in.the.Dumps.avi
Format : AVI
Format/Info : Audio Video Interleave
File size : 272 MiB
Duration : 21mn 12s
Overall bit rate : 1 792 Kbps
Writing application : XviD4PSP 7.0 / 56.15.102
Video
ID : 0
Format : MPEG-4 Visual
Format profile : Advanced Simple@L5
Format settings, BVOP : 1
Format settings, QPel : No
Format settings, GMC : No warppoints
Format settings, Matrix : Default (H.263)
Codec ID : XVID
Codec ID/Hint : XviD
Duration : 21mn 12s
Bit rate : 1 200 Kbps
Width : 720 pixels
Height : 400 pixels
Display aspect ratio : 16:9
Frame rate : 23.976 fps
Color space : YUV
Chroma subsampling : 4:2:0
Bit depth : 8 bits
Scan type : Progressive
Compression mode : Lossy
Bits/(Pixel*Frame) : 0.174
Stream size : 182 MiB (67%)
Title : Original
Writing library : XviD 64
Audio #1
ID : 1
Format : AC-3
Format/Info : Audio Coding 3
Mode extension : CM (complete main)
Format settings, Endianness : Big
Codec ID : 2000
Duration : 21mn 11s
Bit rate mode : Constant
Bit rate : 192 Kbps
Channel(s) : 2 channels
Channel positions : Front: L R
Sampling rate : 48.0 KHz
Bit depth : 16 bits
Compression mode : Lossy
Stream size : 29.1 MiB (11%)
Alignment : Aligned on interleaves
Interleave, duration : 32 ms (0.77 video frame)
Title : 2x2
Audio #2
ID : 2
Format : AC-3
Format/Info : Audio Coding 3
Mode extension : CM (complete main)
Format settings, Endianness : Big
Codec ID : 2000
Duration : 21mn 12s
Bit rate mode : Constant
Bit rate : 384 Kbps
Channel(s) : 6 channels
Channel positions : Front: L C R, Side: L R, LFE
Sampling rate : 48.0 KHz
Bit depth : 16 bits
Compression mode : Lossy
Stream size : 58.2 MiB (21%)
Alignment : Aligned on interleaves
Interleave, duration : 32 ms (0.77 video frame)
Title : Original

Скриншоты

[cybertorrent.ru].t2440.torrent 
Торрент: Зарегистрирован [ 2018-02-16 11:35 ] · E25A3D168AEA57EA4E3239090B1718B24E09E363

Скачать .torrent

Скачать

17 KB

Статус: проверено
Скачан: 0 раз
Размер: 5,95 GB
Профиль [ЛС]
Показать сообщения:    

Текущее время: 17-Ноя 13:27

Часовой пояс: UTC ± 0



Вы не можете начинать темы
Вы не можете отвечать на сообщения
Вы не можете редактировать свои сообщения
Вы не можете удалять свои сообщения
Вы не можете голосовать в опросах
Вы не можете прикреплять файлы к сообщениям
Вы можете скачивать файлы
Torrents24.ru открытый BitTorrent Torrents24.pl открытый BitTorrent CyberTorrent.ru открытый BitTorrent BtList.ru рейтинг BitTorrent трекеров Яндекс.Метрика