Статистика раздачи
Размер:  553 MB   |    Зарегистрирован:  9 месяцев 4 дня   |    Скачан:  0 раз

Полного источника не было: Никогда

Личеров:  1  [  0 KB/s  ]  
 
   
 
 

nic ®

Пол:
Не указан
Стаж:
9 месяцев 5 дней
Сообщений:
60

Китай в огне- Страна: СССР
Жанр: мультипликационный фильм-плакат
Продолжительность: 00:31:50
Год выпуска: 1925
Русские субтитры: нет-Режиссёры: Зенон Комиссаренко, Юрий Меркулов, Николай Ходатаев- | Релиз: -Описание: Фильм протестует против иностранного вмешательства в дела Китая, выступает в поддержку китайской революции. Сделан по заказу общества "Руки прочь от Китая". Впервые применен альбомный метод в анимации.-Качество: DVDRip
Формат: AVI
Видео: 624x480 (1.30:1), 25 fps, XviD MPEG-4 ~2194 kbps avg, 0.29 bit/pixel
Аудио: 48 kHz, AC3 Dolby Digital, 2/0 (L,R) ch, ~224 kbps
Субтитры: английские вшитые (hardsub)

MediaInfo

General
Complete name : Китай в огне.1925.XviD.AC3-rutracker.avi
Format : AVI
Format/Info : Audio Video Interleave
File size : 553 MiB
Duration : 31mn 50s
Overall bit rate : 2 428 Kbps
Movie name : Китай в огне.1925.XviD.AC3-rutracker
Writing application : VirtualDubMod 1.5.10.2 (build 2542/release)
Comment : РГ Мультфильмы / Rutracker.org
Video
ID : 0
Format : MPEG-4 Visual
Format profile : Advanced Simple@L5
Format settings, BVOP : 2
Format settings, QPel : No
Format settings, GMC : No warppoints
Format settings, Matrix : Custom
Codec ID : XVID
Codec ID/Hint : XviD
Duration : 31mn 50s
Bit rate : 2 195 Kbps
Width : 624 pixels
Height : 480 pixels
Display aspect ratio : 4:3
Frame rate : 25.000 fps
Color space : YUV
Chroma subsampling : 4:2:0
Bit depth : 8 bits
Scan type : Progressive
Compression mode : Lossy
Bits/(Pixel*Frame) : 0.293
Stream size : 500 MiB (90%)
Writing library : XviD 65
Audio
ID : 1
Format : AC-3
Format/Info : Audio Coding 3
Mode extension : CM (complete main)
Format settings, Endianness : Big
Codec ID : 2000
Duration : 31mn 50s
Bit rate mode : Constant
Bit rate : 224 Kbps
Channel(s) : 2 channels
Channel positions : Front: L R
Sampling rate : 48.0 KHz
Compression mode : Lossy
Stream size : 51.0 MiB (9%)
Alignment : Split accross interleaves
Interleave, duration : 40 ms (1.00 video frame)
Interleave, preload duration : 500 ms
[cybertorrent.ru].t2442.torrent 
Торрент: Зарегистрирован [ 2018-02-16 11:35 ] · 76E2C5342F996E28067892EED7052113CF822018

Скачать .torrent

Скачать

11 KB

Статус: проверено
Скачан: 0 раз
Размер: 553 MB
Профиль [ЛС]
Показать сообщения:    

Текущее время: 20-Ноя 13:40

Часовой пояс: UTC ± 0



Вы не можете начинать темы
Вы не можете отвечать на сообщения
Вы не можете редактировать свои сообщения
Вы не можете удалять свои сообщения
Вы не можете голосовать в опросах
Вы не можете прикреплять файлы к сообщениям
Вы можете скачивать файлы
Torrents24.ru открытый BitTorrent Torrents24.pl открытый BitTorrent CyberTorrent.ru открытый BitTorrent BtList.ru рейтинг BitTorrent трекеров Яндекс.Метрика