Статистика раздачи
Размер:  1,45 GB   |    Зарегистрирован:  3 месяца 6 дней   |    Скачан:  0 раз

Полного источника не было: Никогда

 
   
 
 

lopster ®

Пол:
Не указан
Стаж:
3 месяца 6 дней
Сообщений:
612

Бабоньки
Жанр: Комедия
Год выпуска: 2016
Продолжительность: 01:29:58
Режиссёр: Антон Коваленко
В ролях: Елена Захарова, Ирина Серова, Алёна Галлиардт, Анна Воронова, Надежда Жарикова, Алексей Капитонов, Олеся Лохова, Пётр Ступин, Влад Сташевский, Максим Пинскер, Сергей Барковский, Бесо Гатаев, Аслан Бижоев, Владимир Костин (III), Ирина Лазарева, Евгений Ткаченко (II), Тина Кузнецова
Описание: В одной из российских деревень, там, куда не добралась цивилизации, и где все еще процветает привозная торговля, живет и работает Катя. Романтика, новые запахи, модные вещи — вдохновляют на подвиги (в прямом и переносном смысле) жительниц деревни. Женщины готовы на все, чтоб обрести свое женское счастье! А мечта всей Катиной жизни — Влад Сташевский!Похищение Влада Сташевского — генеральный план героинь комедии.
Доп. информация:
Автор релиза -
Источник аудио и видео для рипа - HDTV 1080i TS - моя запись с канала Наш Кинороман HD


Сэмпл: https://yadi.sk/i/F50ZZP9M3GMZpn
Рекламы нет!
Качество видео: HDTVRip
Формат видео: AVI
Видео: XviD, 720x400 (16:9), 25.000 fps, 1852 kbps, 0.257 bit/pixel
Аудио: Русский AC3, 48000 Гц, 6ch, 448 kbps

MediaInfo

Общее
Полное имя : D:\Бабоньки.2015.HDTVRip-ylnian.avi
Формат : AVI
Формат/Информация : Audio Video Interleave
Размер файла : 1,45 Гбайт
Продолжительность : 1 ч. 29 м.
Общий поток : 2310 Кбит/сек
Название фильма : Бабоньки.2015.HDTVRip-ylnian
Программа кодирования : VirtualDubMod 1.5.10.2 (build 2540/release)
Библиотека кодирования : VirtualDubMod build 2540/release
Видео
Идентификатор : 0
Формат : MPEG-4 Visual
Профиль формата : Advanced Simple@L5
Параметр BVOP формата : 1
Параметр QPel формата : Нет
Параметр GMC формата : Без точки перехода
Параметр матрицы формата : Default (MPEG)
Идентификатор кодека : XVID
Идентификатор кодека/Подсказка : XviD
Продолжительность : 1 ч. 29 м.
Битрейт : 1852 Кбит/сек
Ширина : 720 пикселей
Высота : 400 пикселей
Соотношение сторон : 16:9
Частота кадров : 25,000 кадров/сек
Цветовое пространство : YUV
Субдискретизация насыщенности : 4:2:0
Битовая глубина : 8 бит
Тип развёртки : Прогрессивная
Метод сжатия : С потерями
Бит/(Пиксели*Кадры) : 0.257
Размер потока : 1,16 Гбайт (80%)
Библиотека кодирования : XviD 67
Аудио
Идентификатор : 1
Формат : AC-3
Формат/Информация : Audio Coding 3
Параметр Endianness формата : Big
Идентификатор кодека : 2000
Продолжительность : 1 ч. 29 м.
Вид битрейта : Постоянный
Битрейт : 448 Кбит/сек
Каналы : 6 каналов
Расположение каналов : Front: L C R, Side: L R, LFE
Частота : 48,0 КГц
Частота кадров : 31,250 кадров/сек (1536 spf)
Битовая глубина : 16 бит
Метод сжатия : С потерями
Размер потока : 288 Мбайт (19%)
Выравнивание : Разделение по промежуткам
Продолжительность промежутка : 40 мс. (1,00 видеокадр)
Время предзагрузки промежутка : 500 мс.
Заголовок : RUS
ServiceKind/String : Complete Main

Скриншот c названием фильма

[cybertorrent.ru].t245.torrent 
Торрент: Зарегистрирован [ 2018-02-15 15:34 ] · 63CDFFCD8725C20AC8D3F82EB65C7099CFEF0F09

Скачать .torrent

Скачать

15 KB

Статус: проверено
Скачан: 0 раз
Размер: 1,45 GB
Профиль [ЛС]
Показать сообщения:    

Текущее время: 21-Май 19:02

Часовой пояс: UTC ± 0



Вы не можете начинать темы
Вы не можете отвечать на сообщения
Вы не можете редактировать свои сообщения
Вы не можете удалять свои сообщения
Вы не можете голосовать в опросах
Вы не можете прикреплять файлы к сообщениям
Вы можете скачивать файлы