Статистика раздачи
Размер:  744 MB   |    Зарегистрирован:  3 месяца 12 дней   |    Скачан:  0 раз

Полного источника не было: Никогда

Личеров:  1  [  0 KB/s  ]  
 
   
 
 

lopster ®

Пол:
Не указан
Стаж:
3 месяца 12 дней
Сообщений:
612

Свадьба по обмену
Год выпуска: 2011
Жанр: комедия
Продолжительность: 01:29:03.200 (133580 frames)
Субтитры: нет
Режиссер: Дмитрий Грачев
В ролях: Екатерина Вилкова, Максим Матвеев, Фёдор Бондарчук, Ксения Каталымова, Мария Кожевникова, Арарат Кещян, Андрей Малахов, Александр Самойленко, Казимир Лиске, Инга Оболдина, Ольга Хохлова, Евгения Бордзиловская, Владислав Дунаев, Владислав Жёлтиков, Константин Чепурин, Иван Распопов, Татьяна Плетнёва, Евгений Харланов, Евгений Гусев, Виктор Балабанов, Иван Куколев, Ольга Прихудайлова, Кирилл Просвиренников, Анастасия Лазарева, Анастасия Бондаренко, Сергей Шайдаков
Описание: Супермодель Соня мечтает о тихом семейном счастье с Русланом, самовлюбленным телеведущим, но тот не разделяет ее мечты. В отместку Соня решает выйти за обычного банковского клерка. Первым на глаза ей попадается Саша, который тоже хочет проучить девушку Кристину, не отвечающую ему взаимностью. Уже выйдя из ЗАГСа, Саша и Соня понимают, что погорячились. Но дело сделано и им приходится изображать счастливую пару, скрывая взаимную неприязнь...
Качество: BDRip
Формат: AVI
Видео кодек: XviD
Аудио кодек: МР3
Видео: 688x368 (1.87:1), 25 fps, XviD build 73 ~1030 kbps avg, 0.16 bit/pixel
Аудио: 48 kHz, MPEG Layer 3, 2 ch, ~128.00 kbps avg

Медиаинфо

F:\004 Мои раздачи\Свадьба по обмену 745\svadba_po obmenu_745_[torrents.ru]_by_bm11.avi
General
Complete name : F:\004 Мои раздачи\Свадьба по обмену 745\svadba_po obmenu_745_[torrents.ru]_by_bm11.avi
Format : AVI
Format/Info : Audio Video Interleave
File size : 744 MiB
Duration : 1h 29mn
Overall bit rate : 1 168 Kbps
Director : bm11
Writing application : VirtualDubMod 1.5.10.3 | www.virtualdub-fr.org || (build 2550/release)
Video
Format : MPEG-4 Visual
Format profile : Streaming Video@L1
Format settings, BVOP : Yes
Format settings, QPel : No
Format settings, GMC : No warppoints
Format settings, Matrix : Custom
Codec ID : XVID
Codec ID/Hint : XviD
Duration : 1h 29mn
Bit rate : 1 031 Kbps
Width : 688 pixels
Height : 368 pixels
Display aspect ratio : 1.870
Frame rate : 25.000 fps
Resolution : 24 bits
Colorimetry : 4:2:0
Scan type : Progressive
Bits/(Pixel*Frame) : 0.163
Stream size : 657 MiB (88%)
Writing library : XviD 73
Audio
Format : MPEG Audio
Format version : Version 1
Format profile : Layer 3
Codec ID : 55
Codec ID/Hint : MP3
Duration : 1h 29mn
Bit rate mode : Constant
Bit rate : 128 Kbps
Minimum bit rate : 128 Kbps
Channel(s) : 2 channels
Sampling rate : 48.0 KHz
Resolution : 16 bits
Stream size : 81.5 MiB (11%)
Alignment : Aligned on interleaves
Interleave, duration : 40 ms (1.00 video frame)
Interleave, preload duration : 504 ms
Writing library : LAME3.99r
Encoding settings : CBR
[cybertorrent.ru].t246.torrent 
Торрент: Зарегистрирован [ 2018-02-15 15:34 ] · 292A8A3309E39F9C3A1873148AFFD4574E154FA3

Скачать .torrent

Скачать

15 KB

Статус: проверено
Скачан: 0 раз
Размер: 744 MB
Профиль [ЛС]
Показать сообщения:    

Текущее время: 28-Май 08:12

Часовой пояс: UTC ± 0



Вы не можете начинать темы
Вы не можете отвечать на сообщения
Вы не можете редактировать свои сообщения
Вы не можете удалять свои сообщения
Вы не можете голосовать в опросах
Вы не можете прикреплять файлы к сообщениям
Вы можете скачивать файлы