Статистика раздачи
Размер:  22,78 GB   |    Зарегистрирован:  7 месяцев 7 дней   |    Скачан:  0 раз

Полного источника не было: Никогда

 
   
 
 

karapuz ®

Пол:
Не указан
Стаж:
7 месяцев 8 дней
Сообщений:
128

Будь Классным, Скуби-Ду! / Be Cool, Scooby-Doo!
Страна: США
Жанр: Мультипликация
Продолжительность: ~00:22:00
Год выпуска: 2015
Перевод 1: Профессиональный (дублированный) [1-26 серии]
Перевод 2: Любительский (Двухголосый закадровый) (Денис Коровин, Екатерина Дмитрова) [1-6 серии]
Перевод 3: Любительский (Одноголосый закадровый) (RedRussian1337) [1-20 серии]
Русские субтитры: нет-Режиссёр: Джеф Медников / Jeff Mednikow, Шонт Нигогосян / Shaunt Nigoghossian, Энди Том / Andi Thom
Роли озвучивали: Грэй Гриффин, Мэттью Лиллард, Кейт Микуччи, Фрэнк Уэлкер-Описание: Действие мультсериала Be Cool, Scooby-Doo! происходит после того, как герои заканчивают выпускной класс в школе. Полагая, что вместе провести лето им еще не скоро удастся, они решают отправиться на своем фургончике тайн, который Фрэд улучшил с помощью своих супер современных приборов. Как можно уже догадаться, на пути у них будет много монстров, которые то и дело, будут пытаться сделать так, чтобы путешествие Скуби-Ду и его банды не закончилось успешно.-Релиз от -
Благодарности: Видео предоставлено saylione-Качество: WEB-DL 1080p
Формат: MKV
Видео: AVC, 1916x1076 (16:9), 23.976 fps, 4 835 Kbps (0.098 bit/pixel)
Аудио 1: AC-3, 48.0 KHz, 2 ch, 192 Kbps, CBR (Russian) DUB
Аудио 2: AC-3, 48.0 KHz, 2 ch, 192 Kbps, CBR (Russian) DVO (Денис Коровин, Екатерина Дмитрова)
Аудио 3: AC-3, 48.0 KHz, 2 ch, 192 Kbps, CBR (Russian) VO (RedRussian1337)
Аудио 4: AC-3, 48.0 KHz, 6 ch, 448 Kbps, CBR (English)
Субтитры: English
Семпл: Забираем тут

Список серий:

1. Mystery 101 / Дело № 101
2. Game of Chicken / Игра цыпленка
3. All Paws on Deck / Все лапы на борт
4. Poodle Justice / Правосудие пуделя
5. Grand Scam / Грандиозный обман
6. Trading Chases / Мистическое пари
7. Be Quiet Scooby-Doo!/ Тише Скуби-Ду!
8. Party Like It's 1899 / Вечеринка в стиле 1899 года
9. Screama Donna / Призрак Примадонны
10. Kitchen Frightmare / Кухонный кошмар
11. Me, Myself, And A.l. / Я, Я и только Я
12. Area 51 Adjacent / Зона 51 и последующие
13. Where There's a Will, There's a Wraith / Где завещание, там и призрак
14. If You Can't Scooby-Doo the Time, Don't Scooby-Doo the Crime / Не пойман, не вор
15. Scary Christmas / Страшное Рождество
16. Gremlin on a Plane / Гремлин на борту
17. Sorcerer Snacks Scare / Проклятие магических вкусняшек
18. Saga of the swamp beast / Сага о болотном монстре
19. Be Cold, Scooby-Doo / Не мерзни Скуби-Ду
20. Giant Problems / Гигантские проблемы
21. Eating Crow / Переполох на ферме
22. I Scooby-Dooby-Do / Скуби говорит Да
23. El Bandito / Эль Бандито
24. Into the Mouth of Madcap / Сорвиголова
25. The Norse Case Scenario / Сценарий с викингами
26. The People vs. Fred Jones / Народ против Фреда Джонса

Внимание! Раздача ведется путем добавления новых серий

Внимание! Раздача ведётся путём добавления новых серий; при каждом добавлении создаётся новый торрент. Чтобы начать докачку новой серии, пользователям необходимо сделать следующее:
(1) остановить скачивание,
(2) удалить старый торрент у себя из клиента (старые серии удалять не надо),
(3) скачать новый торрент и запустить его у себя в клиенте вместо старого, при этом указать клиенту путь в старую папку куда и должно происходить скачивание новых серий.
Ваш клиент при этом должен произвести хеширование (проверку) старой папки (если не производит сам - помогите ему сделать это), и будет докачивать только те серии которых у вас ещё нет. Старые серии при этом не удаляются, а продолжают раздаваться!
Eсли вы уже удалили старые серии, то предотвратить повторную закачку старых серий можно, отжав галочку в соответсвующих местах при запуске нового торрента. По возможности, желательно не удалять старые серии как можно дольше чтобы релизёр не столько продолжал раздавать старые серии, а смог сконцентрироваться на новых.

Подробные технические данные

Unique ID : 246760707887872561664542165396569468691 (0xB9A462365BC52749B6CA629848082F13)
Complete name : Be Cool Scooby-Doo 1080p\Be Cool Scooby-Doo! S01E02 Game Of Chicken 1080p WEB-DL.mkv
Format : Matroska
Format version : Version 4 / Version 2
File size : 864 MiB
Duration : 22mn 36s
Overall bit rate : 5 347 Kbps
Encoded date : UTC 2015-10-30 11:55:23
Writing application : mkvmerge v8.3.0 ('Over the Horizon') 64bit
Writing library : libebml v1.3.1 + libmatroska v1.4.2
DURATION : 00:22:36.192000000
NUMBER_OF_FRAMES : 42381
NUMBER_OF_BYTES : 32548608
_STATISTICS_WRITING_APP : mkvmerge v8.3.0 ('Over the Horizon') 64bit
_STATISTICS_WRITING_DATE_UT : 2015-10-30 11:55:23
_STATISTICS_TAGS : BPS DURATION NUMBER_OF_FRAMES NUMBER_OF_BYTES
Video
ID : 1
Format : AVC
Format/Info : Advanced Video Codec
Format profile : High@L4
Format settings, CABAC : Yes
Format settings, ReFrames : 4 frames
Codec ID : V_MPEG4/ISO/AVC
Duration : 22mn 36s
Bit rate : 4 472 Kbps
Width : 1 916 pixels
Height : 1 076 pixels
Display aspect ratio : 16:9
Frame rate mode : Constant
Frame rate : 23.976 fps
Color space : YUV
Chroma subsampling : 4:2:0
Bit depth : 8 bits
Scan type : Progressive
Bits/(Pixel*Frame) : 0.090
Stream size : 723 MiB (84%)
Language : English
Default : Yes
Forced : No
Color range : Limited
Color primaries : BT.709
Transfer characteristics : BT.709
Matrix coefficients : BT.709
Audio #1
ID : 2
Format : AC-3
Format/Info : Audio Coding 3
Mode extension : CM (complete main)
Format settings, Endianness : Big
Codec ID : A_AC3
Duration : 22mn 36s
Bit rate mode : Constant
Bit rate : 192 Kbps
Channel(s) : 2 channels
Channel positions : Front: L R
Sampling rate : 48.0 KHz
Compression mode : Lossy
Stream size : 31.0 MiB (4%)
Language : Russian
Default : Yes
Forced : No
Audio #2
ID : 3
Format : AC-3
Format/Info : Audio Coding 3
Mode extension : CM (complete main)
Format settings, Endianness : Big
Codec ID : A_AC3
Duration : 22mn 36s
Bit rate mode : Constant
Bit rate : 192 Kbps
Channel(s) : 2 channels
Channel positions : Front: L R
Sampling rate : 48.0 KHz
Compression mode : Lossy
Stream size : 31.0 MiB (4%)
Language : Russian
Default : No
Forced : No
Audio #3
ID : 4
Format : AC-3
Format/Info : Audio Coding 3
Mode extension : CM (complete main)
Format settings, Endianness : Big
Codec ID : A_AC3
Duration : 22mn 36s
Bit rate mode : Constant
Bit rate : 384 Kbps
Channel(s) : 6 channels
Channel positions : Front: L C R, Side: L R, LFE
Sampling rate : 48.0 KHz
Compression mode : Lossy
Stream size : 62.1 MiB (7%)
Language : English
Default : No
Forced : No
Text
ID : 5
Format : UTF-8
Codec ID : S_TEXT/UTF8
Codec ID/Info : UTF-8 Plain Text
Language : English
Default : No
Forced : No
[cybertorrent.ru].t2464.torrent 
Торрент: Зарегистрирован [ 2018-02-16 11:35 ] · C3FBECF06AF8098707A3F91852AFEA831DE4B1B9

Скачать .torrent

Скачать

117 KB

Статус: проверено
Скачан: 0 раз
Размер: 22,78 GB
Профиль [ЛС]
Показать сообщения:    

Текущее время: 24-Сен 07:24

Часовой пояс: UTC ± 0



Вы не можете начинать темы
Вы не можете отвечать на сообщения
Вы не можете редактировать свои сообщения
Вы не можете удалять свои сообщения
Вы не можете голосовать в опросах
Вы не можете прикреплять файлы к сообщениям
Вы можете скачивать файлы
Torrents24.ru открытый BitTorrent Torrents24.pl открытый BitTorrent CyberTorrent.ru открытый BitTorrent BtList.ru рейтинг BitTorrent трекеров Яндекс.Метрика