Статистика раздачи
Размер:  750 MB   |    Зарегистрирован:  9 месяцев 5 дней   |    Скачан:  0 раз

Полного источника не было: Никогда

Личеров:  8  [  0 KB/s  ]  
 
   
 
 

nic ®

Пол:
Не указан
Стаж:
9 месяцев 6 дней
Сообщений:
60

Мельница кота / Kаķīša dzirnavas
Страна: Латвия
Жанр: мультфильм, экранизация
Продолжительность: 00:56:29
Год выпуска: 1994
Перевод: Профессиональный (дублированный)
Русские субтитры: нет
Режиссёр: Розе Стиебра / Roze Stiebra
Дубляж: Студия СВ-Дубль (1995)
Роли дублировали: Александр Воеводин, Дмитрий Полонский, Леонид Белозорович, Ольга Голованова, Нина Тобилевич
Описание: По мотивам сказок Карлиса Скалбе.
Вечером накануне Рождества дети просят кота рассказать им сказку.
Кот рассказывает историю о том, как давным-давно был он хозяином мельницы. Собирая деньги на приданое трём своим дочерям, кот заключил договор с нечистым, но был обманут и лишился мельницы и дома. Суровые испытания выпали на долю кота, но его добросердечие помогло пережить все трудности.
Доп. информация: Выражаю благодарность booratino, записавшему этот фильм на VHS с канала TV6 в 1995 году. Если бы не он, русский дубляж этого фильма, возможно, был бы сейчас недоступен.
Качество: DVDRip
Формат: AVI
Видео: 1718 kbps, 656х496 (4:3), 25.000 fps, MPEG-4 Visual (XviD)
Аудио: 128 kbps, 48.0 kHz, 2 channels, MPEG Audio (MP3)
Субтитры: отсутствуют

Подробные технические данные

General
Complete name : Kаķīša dzirnavas (1994).avi
Format : AVI
Format/Info : Audio Video Interleave
File size : 750 MiB
Duration : 56mn 29s
Overall bit rate : 1 856 Kbps
Writing application : VirtualDubMod 1.5.10.2 (build 2540/release)
Writing library : VirtualDub build 35491/release
Video
ID : 0
Format : MPEG-4 Visual
Format profile : Advanced Simple@L4
Format settings, BVOP : 2
Format settings, QPel : No
Format settings, GMC : No warppoints
Format settings, Matrix : Default (H.263)
Codec ID : XVID
Codec ID/Hint : XviD
Duration : 56mn 29s
Bit rate : 1 718 Kbps
Width : 656 pixels
Height : 496 pixels
Display aspect ratio : 4:3
Frame rate : 25.000 fps
Color space : YUV
Chroma subsampling : 4:2:0
Bit depth : 8 bits
Scan type : Progressive
Compression mode : Lossy
Bits/(Pixel*Frame) : 0.211
Stream size : 694 MiB (93%)
Writing library : XviD 64
Audio
ID : 1
Format : MPEG Audio
Format version : Version 1
Format profile : Layer 3
Mode : Joint stereo
Mode extension : MS Stereo
Codec ID : 55
Codec ID/Hint : MP3
Duration : 56mn 29s
Bit rate mode : Constant
Bit rate : 128 Kbps
Channel(s) : 2 channels
Sampling rate : 44.1 KHz
Compression mode : Lossy
Delay relative to video : 23ms
Stream size : 51.7 MiB (7%)
Alignment : Split accross interleaves
Interleave, duration : 40 ms (1.00 video frame)
Interleave, preload duration : 500 ms

Скриншоты

[cybertorrent.ru].t2465.torrent 
Торрент: Зарегистрирован [ 2018-02-16 11:35 ] · 5BC4B45D48F116ECF1138FFF8954504BEE967EAD

Скачать .torrent

Скачать

15 KB

Статус: проверено
Скачан: 0 раз
Размер: 750 MB
Профиль [ЛС]
Показать сообщения:    

Текущее время: 21-Ноя 13:41

Часовой пояс: UTC ± 0



Вы не можете начинать темы
Вы не можете отвечать на сообщения
Вы не можете редактировать свои сообщения
Вы не можете удалять свои сообщения
Вы не можете голосовать в опросах
Вы не можете прикреплять файлы к сообщениям
Вы можете скачивать файлы
Torrents24.ru открытый BitTorrent Torrents24.pl открытый BitTorrent CyberTorrent.ru открытый BitTorrent BtList.ru рейтинг BitTorrent трекеров Яндекс.Метрика