Статистика раздачи
Размер:  1,45 GB   |    Зарегистрирован:  3 месяца 9 дней   |    Скачан:  0 раз

Полного источника не было: Никогда

Личеров:  1  [  0 KB/s  ]  
 
   
 
 

lopster ®

Пол:
Не указан
Стаж:
3 месяца 9 дней
Сообщений:
612

Удача напрокат
Жанр: Комедия, мелодрама
Год выпуска: 2012
Продолжительность: 01:29:27
Режиссёр: Дмитрий Сорокин
В ролях: Ирина Медведева, Дмитрий Богданов, Ирина Пулина, Юрий Ваксман, Максим Пинскер, Константин Третьяков, Ксения Скакун, Михаил Панюков, Денис Харитонов, Зинаида Матросова
Описание: В жизни Кристины все прекрасно: жених - красавец, богатый наследник Николай, отличная работа в крупной компании. Через пару месяцев Кристине исполнится тридцать. Кристина ждет дня рождения с особым трепетом: когда-то старая гадалка сказала ей, что если она встретит свое 30-летие успешной, то и дальше ей будет сопутствовать удача, а если нет, то ходить Кристине одинокой и бедной до конца своих дней. На память гадалка дала девушке медальон, который должен был охранять ее от невзгод. Но по роковому стечению обстоятельств коллега Кристины, неудачник Сергей, разбивает ее счастливый медальон. И сказочная жизнь Кристины превращается в ад: она заваливает проект и застает жениха с другой женщиной. Кристине предстоит пройти через массу неприятностей, чтобы понять, что главное в жизни не мистические предсказания и волшебные амулеты, а близкие люди, которые ее окружают.
Доп. информация:
Автор релиза -
Источник аудио и видео для рипа - HDTV 1080i TS - моя запись с канала Наш Кинороман HD



Сэмпл: https://yadi.sk/i/mxpYtofE3GPLdM
Рекламы нет!
Качество видео: HDTVRip
Формат видео: AVI
Видео: XviD, 720x400 (16:9), 25.000 fps, 1870 kbps, 0.260 bit/pixel
Аудио: Русский AC3, 48000 Гц, 6ch, 448 kbps

MediaInfo

Общее
Полное имя : D:\Удача.напрокат.2012.HDTVRip-ylnian.avi
Формат : AVI
Формат/Информация : Audio Video Interleave
Размер файла : 1,45 Гбайт
Продолжительность : 1 ч. 29 м.
Общий поток : 2328 Кбит/сек
Название фильма : Удача.напрокат.2012.HDTVRip-ylnian
Программа кодирования : VirtualDubMod 1.5.10.2 (build 2540/release)
Библиотека кодирования : VirtualDubMod build 2540/release
Видео
Идентификатор : 0
Формат : MPEG-4 Visual
Профиль формата : Advanced Simple@L5
Параметр BVOP формата : 1
Параметр QPel формата : Нет
Параметр GMC формата : Без точки перехода
Параметр матрицы формата : Default (MPEG)
Идентификатор кодека : XVID
Идентификатор кодека/Подсказка : XviD
Продолжительность : 1 ч. 29 м.
Битрейт : 1870 Кбит/сек
Ширина : 720 пикселей
Высота : 400 пикселей
Соотношение сторон : 16:9
Частота кадров : 25,000 кадров/сек
Цветовое пространство : YUV
Субдискретизация насыщенности : 4:2:0
Битовая глубина : 8 бит
Тип развёртки : Прогрессивная
Метод сжатия : С потерями
Бит/(Пиксели*Кадры) : 0.260
Размер потока : 1,17 Гбайт (80%)
Библиотека кодирования : XviD 67
Аудио
Идентификатор : 1
Формат : AC-3
Формат/Информация : Audio Coding 3
Параметр Endianness формата : Big
Идентификатор кодека : 2000
Продолжительность : 1 ч. 29 м.
Вид битрейта : Постоянный
Битрейт : 448 Кбит/сек
Каналы : 6 каналов
Расположение каналов : Front: L C R, Side: L R, LFE
Частота : 48,0 КГц
Частота кадров : 31,250 кадров/сек (1536 spf)
Битовая глубина : 16 бит
Метод сжатия : С потерями
Размер потока : 287 Мбайт (19%)
Выравнивание : Разделение по промежуткам
Продолжительность промежутка : 40 мс. (1,00 видеокадр)
Время предзагрузки промежутка : 500 мс.
Заголовок : RUS
ServiceKind/String : Complete Main

Скриншот c названием фильма

[cybertorrent.ru].t247.torrent 
Торрент: Зарегистрирован [ 2018-02-15 15:34 ] · 6D474950289B601AC557CCBABDB6C29AF45166FB

Скачать .torrent

Скачать

15 KB

Статус: проверено
Скачан: 0 раз
Размер: 1,45 GB
Профиль [ЛС]
Показать сообщения:    

Текущее время: 25-Май 09:08

Часовой пояс: UTC ± 0



Вы не можете начинать темы
Вы не можете отвечать на сообщения
Вы не можете редактировать свои сообщения
Вы не можете удалять свои сообщения
Вы не можете голосовать в опросах
Вы не можете прикреплять файлы к сообщениям
Вы можете скачивать файлы