Статистика раздачи
Размер:  17,99 GB   |    Зарегистрирован:  5 месяцев 5 дней   |    Скачан:  0 раз

Полного источника не было: Никогда

 
   
 
 

DR_KTO ®

Пол:
Не указан
Стаж:
5 месяцев 6 дней
Сообщений:
105

Симпсоны / The Simpsons- Страна: США
Год выпуска: 2015
Жанр: Мультсериал, комедия, сатира
Перевод: Профессиональный (многоголосый закадровый)
Продолжительность: ~22 минуты
Русские субтитры: нет
-Режиссёр: Мэтт Гроунинг / Matt Groening-Роли озвучивали: Дэн Кастелланета, Джули Кавнер, Нэнси Картрайт, Ярдли Смит, Гарри Ширер, Хэнк Азария, Памела Хейден, Тресс МакНилл, Карл Видерготт, Мэгги Росвэлл и другие.-Описание: Симпсоны живут в вымышленном городе Спрингфилд, со своим обществом и историей. Гомер - отец семейства, который даёт плохие советы и работает инспектором по безопасности на атомной электростанции; Мардж - любящая мать и жена, старается сохранить спокойствие в семье; Барт - 10 летний хулиган; Лиза - философский 8-летний ребёнок; и Мэгги - младенец, который общается посредством соски.-Все раздачи мультсериала / Сэмпл-**Качество: WEB-DL 1080p
**Формат: MKV
**Видео:
**#AVC, 1916x1076, 23.976 fps, ~5000 kbps (1, 6, 7, 12-22 серии)
**#AVC, 1920x1080, 23.976 fps, ~5000 kbps (2, 10, 11 серии)
**#AVC, 1912x1072, 23.976 fps, ~5000 kbps (3-5, 8, 9 серии)
**Аудио Rus: AC3, 48 KHz, 2 ch, 256 kbps (VO-production)
**Аудио Eng: AC3, 48 KHz, 6 ch, 384 kbps
**Субтитры: английские

Подробные технические данные

General
Unique ID : 200632790068460233767230311428390472266 (0x96F078463F2BF1869442499CAD294A4A)
Complete name : C:\The Simpsons (Season 27) WEB-DL 1080p\01. Every Man's Dream.mkv
Format : Matroska
Format version : Version 4 / Version 2
File size : 789 MiB
Duration : 21mn 30s
Overall bit rate : 5 127 Kbps
Encoded date : UTC 2015-10-03 14:03:29
Writing application : mkvmerge v8.2.0 ('World of Adventure') 64bit
Writing library : libebml v1.3.1 + libmatroska v1.4.2
Attachements : cover.png
DURATION : 00:21:30.720000000
NUMBER_OF_FRAMES : 40335
NUMBER_OF_BYTES : 41303040
_STATISTICS_WRITING_APP : mkvmerge v8.2.0 ('World of Adventure') 64bit
_STATISTICS_WRITING_DATE_UT : 2015-10-03 14:03:29
_STATISTICS_TAGS : BPS DURATION NUMBER_OF_FRAMES NUMBER_OF_BYTES
Video
ID : 1
Format : AVC
Format/Info : Advanced Video Codec
Format profile : High@L4
Format settings, CABAC : Yes
Format settings, ReFrames : 4 frames
Codec ID : V_MPEG4/ISO/AVC
Duration : 21mn 30s
Bit rate : 4 385 Kbps
Width : 1 916 pixels
Height : 1 076 pixels
Display aspect ratio : 16:9
Frame rate mode : Constant
Frame rate : 23.976 fps
Color space : YUV
Chroma subsampling : 4:2:0
Bit depth : 8 bits
Scan type : Progressive
Bits/(Pixel*Frame) : 0.089
Stream size : 675 MiB (86%)
Language : English
Default : Yes
Forced : No
Color range : Limited
Color primaries : BT.709
Transfer characteristics : BT.709
Matrix coefficients : BT.709
Audio #1
ID : 2
Format : AC-3
Format/Info : Audio Coding 3
Mode extension : CM (complete main)
Format settings, Endianness : Big
Codec ID : A_AC3
Duration : 21mn 30s
Bit rate mode : Constant
Bit rate : 256 Kbps
Channel(s) : 2 channels
Channel positions : Front: L R
Sampling rate : 48.0 KHz
Compression mode : Lossy
Stream size : 39.4 MiB (5%)
Title : VO-production
Language : Russian
Default : Yes
Forced : No
Audio #2
ID : 3
Format : AC-3
Format/Info : Audio Coding 3
Mode extension : CM (complete main)
Format settings, Endianness : Big
Codec ID : A_AC3
Duration : 21mn 30s
Bit rate mode : Constant
Bit rate : 384 Kbps
Channel(s) : 6 channels
Channel positions : Front: L C R, Side: L R, LFE
Sampling rate : 48.0 KHz
Compression mode : Lossy
Stream size : 59.1 MiB (7%)
Language : English
Default : No
Forced : No
Text
ID : 4
Format : UTF-8
Codec ID : S_TEXT/UTF8
Codec ID/Info : UTF-8 Plain Text
Language : English
Default : No
Forced : No

Список серий

01. Мечта каждого человека (Every Man's Dream)
02. Типа детектив ('Cue Detective)
03. Меньше пыхтите (Puffless)
04. Ужасы на Хэллоуин (Halloween of Horror)
05. Домик ужасов на дереве XXVI (Treehouse of Horror XXVI)
06. Дружба ради выгоды (Friend with Benefit)
07. Лиза через "С" (Lisa with an "S")
08. Пути славы (Paths of Glory)
09. Взросление Барта (Barthood)
10. Женский код (The Girl Code)
11. Несовершеннолетний мутант из-за заменителя молока (Teenage Mutant Milk-Caused Hurdle)
12. Много Апу из кое-чего (Much Apu About Something)
13. Любовь - это N2-O2-Ar-CO2-Ne-He-CH4 (Love Is in the N2-O2-Ar-CO2-Ne-He-CH4)
14. Девушка постоянной печали (Gal of Constant Sorrow)
15. Ветеринар Лиза (Lisa the Veterinarian)
16. Марджианские хроники (The Marge-ian Chronicles)
17. Клетка Бернса (The Burns Cage)
18. Как Лиза вернула свою Мардж (How Lisa Got Her Marge Back)
19. Фланд-Каньон (Fland Canyon)
20. Курьеру с любовью (To Courier with Love)
21. Симпровизация (Simprovised)
22. Оранжевый это новый жёлтый (Orange Is the New Yellow)

Скриншоты

Внимание! Раздача ведётся путём добавления новых серий

Внимание! Раздача ведётся путём добавления новых серий; при каждом добавлении создаётся новый торрент. Чтобы начать докачку новой серии, пользователям необходимо сделать следующее:
(1) остановить скачивание,
(2) удалить старый торрент у себя из клиента (старые серии удалять не надо),
(3) скачать новый торрент и запустить его у себя в клиенте вместо старого, при этом указать клиенту путь в старую папку куда и должно происходить скачивание новых серий.
Ваш клиент при этом должен произвести хеширование (проверку) старой папки (если не производит сам - помогите ему сделать это), и будет докачивать только те серии, которых у вас ещё нет. Старые серии при этом не удаляются, а продолжают раздаваться!
Если вы уже удалили старые серии, то предотвратить повторную закачку старых серий можно, отжав галочку в соответствующих местах при запуске нового торрента. По возможности, желательно не удалять старые серии как можно дольше, чтобы релизёр не столько продолжал раздавать старые серии, а смог сконцентрироваться на новых.
[cybertorrent.ru].t2479.torrent 
Торрент: Зарегистрирован [ 2018-02-16 11:35 ] · D813C9D9085261BEF13AB84E738B150AB70A43D0

Скачать .torrent

Скачать

47 KB

Статус: проверено
Скачан: 0 раз
Размер: 17,99 GB
Профиль [ЛС]
Показать сообщения:    

Текущее время: 21-Июл 23:11

Часовой пояс: UTC ± 0



Вы не можете начинать темы
Вы не можете отвечать на сообщения
Вы не можете редактировать свои сообщения
Вы не можете удалять свои сообщения
Вы не можете голосовать в опросах
Вы не можете прикреплять файлы к сообщениям
Вы можете скачивать файлы