Статистика раздачи
Размер:  1,36 GB   |    Зарегистрирован:  3 месяца 12 дней   |    Скачан:  0 раз

Полного источника не было: Никогда

Личеров:  1  [  0 KB/s  ]  
 
   
 
 

lopster ®

Пол:
Не указан
Стаж:
3 месяца 12 дней
Сообщений:
612

Олимпиус Инферно
Жанр: Боевик, драма
Год выпуска: 2009
Продолжительность: 01:28:23
Режиссёр: Игорь Волошин
В ролях: Полина Филоненко, Генри Давид, Вадим Цаллати, Адгур Малия, Елена Храмова, Артур Гургенян, Венера Скверия, Адгур Джения, Сергей Сангулия
Описание: 08.08.08. Молодой энтомолог из США, Майкл, и его подруга, московская журналистка Женя, приезжают в Южную Осетию для съемок фильма о редком виде бабочек. Но этой же ночью грузинские войска нападают на Южную Осетию. Камеры Майкла снимают начало операции.
Наши герои понимают, что в их руках оказались доказательства, которые поставят точку в наступившей информационной войне. Но об этом узнают и грузинские спецслужбы. Чтобы донести миру правду, Майклу и Жене нужно прорваться через оккупированную территорию в разрушенный, но не сломленный Цхинвал.
Доп. информация: Сравнение с раздачей http://cybertorrent.ru/viewtopic.php?t=1686678 (не для поглощения) -> http://screenshotcomparison.com/comparison/204792
Звуковая дорожка без цензуры. Все "запиканные слова" заменены на звук с DVD
Отличия от DVD:
- начало и конец фильма (разговор в офисе) здесь в цвете, а не ч/б
- 01:14:15 сцена в машине - слова, которых нет на ДВД
- перед титрами идёт надпись "Посвящается всем погибшим..." и фото девочки
- сами титры тоже оформлены по-другому
Сэмпл: https://m.sendspace.com/file/vwc5rj
Качество видео: SATRip Исходник
Формат видео: AVI
Видео: XviD / 2004 kbps / 704x400 / 25.000 fps
Аудио: AC3 / 2 ch / 192 kbps / 48 kHz

MediaInfo

General
Complete name : J:\Torrents\Готовые релизы\Олимпиус Инферно (2009) SATRip.avi
Format : AVI
Format/Info : Audio Video Interleave
File size : 1.36 GiB
Duration : 1 h 28 min
Overall bit rate : 2 206 kb/s
Writing application : VirtualDubMod 1.5.10.3 | www.virtualdub-fr.org || (build 2550/release)
Writing library : VirtualDubMod build 2550/release
Video
ID : 0
Format : MPEG-4 Visual
Format profile : Advanced Simple@L5
Format settings, BVOP : 2
Format settings, QPel : No
Format settings, GMC : No warppoints
Format settings, Matrix : Default (H.263)
Codec ID : XVID
Codec ID/Hint : XviD
Duration : 1 h 28 min
Bit rate : 2 004 kb/s
Width : 704 pixels
Height : 400 pixels
Display aspect ratio : 16:9
Frame rate : 25.000 FPS
Color space : YUV
Chroma subsampling : 4:2:0
Bit depth : 8 bits
Scan type : Progressive
Compression mode : Lossy
Bits/(Pixel*Frame) : 0.285
Stream size : 1.24 GiB (91%)
Writing library : XviD 1.2.1 (UTC 2008-12-04)
Audio
ID : 1
Format : AC-3
Format/Info : Audio Coding 3
Mode extension : CM (complete main)
Format settings, Endianness : Big
Codec ID : 2000
Duration : 1 h 28 min
Bit rate mode : Constant
Bit rate : 192 kb/s
Channel(s) : 2 channels
Channel positions : Front: L R
Sampling rate : 48.0 kHz
Frame rate : 31.250 FPS (1536 spf)
Bit depth : 16 bits
Compression mode : Lossy
Stream size : 121 MiB (9%)
Alignment : Split accross interleaves
Interleave, duration : 40 ms (1.00 video frame)
Interleave, preload duratio : 500 ms

Скриншот c названием фильма

Скриншоты

[cybertorrent.ru].t248.torrent 
Торрент: Зарегистрирован [ 2018-02-15 15:34 ] · FD9F4A2F00D49DE61A4C69E70784CE422638A611

Скачать .torrent

Скачать

14 KB

Статус: проверено
Скачан: 0 раз
Размер: 1,36 GB
Профиль [ЛС]
Показать сообщения:    

Текущее время: 28-Май 08:11

Часовой пояс: UTC ± 0



Вы не можете начинать темы
Вы не можете отвечать на сообщения
Вы не можете редактировать свои сообщения
Вы не можете удалять свои сообщения
Вы не можете голосовать в опросах
Вы не можете прикреплять файлы к сообщениям
Вы можете скачивать файлы