Статистика раздачи
Размер:  2,38 GB   |    Зарегистрирован:  7 месяцев 4 дня   |    Скачан:  0 раз

Полного источника не было: Никогда

 
   
 
 

Zima ®

Пол:
Не указан
Стаж:
7 месяцев 6 дней
Сообщений:
42

Крепость: Щитом и мечом
Страна: Россия
Жанр: Мультфильм, приключения, военный
Продолжительность: 01:16:43
Год выпуска: 2015
Перевод: Не требуется
Русские субтитры: нет
Режиссёр: Фёдор Дмитриев
Роли озвучивали: Пётр Фёдоров, Евгений Стычкин, Елена Шульман, Екатерина Гороховская, Вадим Никитин
Описание: 1609 год. Идет война. Польско-литовские войска взяли в осаду Смоленск, но русский гарнизон во главе с воеводой Михаилом Шеиным готов держать оборону до конца. Смоленск — главная крепость на пути захватчиков к Москве, и его нельзя сдавать без боя. Об этом знают даже дети. Мальчик Сашка лепит самодельные бомбы из теста и колдует в защиту города — вызывает на помощь Царя с Огненным щитом и Пламенным копьем. Пока волшебный царь не пришел, Сашка и его друг Федор просятся в помощники к воеводе. Им предстоит разрушить коварные планы польского короля Сигизмунда Третьего и справиться с нечистой силой, что по ночам бродит по осажденной крепости.
Сэмпл
Качество: WEB-DL 720p
Формат: MKV
Видео: AVC, 1280х536, 24,000 кадров/сек, 3968 кбит/сек
Аудио: AC-3, 48,0 КГц, 6 каналов, 384 кбит/сек
Субтитры: Отсутствуют

Подробные технические данные

Общее
Уникальный идентификатор : 223497030676990519173009595687005491528 (0xA823F65EF1E7D5CE9921295F2E4A9148)
Полное имя : D:\Видео\Мои раздачи\Крепость. Щитом и мечём.mkv
Формат : Matroska
Версия формата : Version 4 / Version 2
Размер файла : 2,38 Гбайт
Продолжительность : 1 ч. 16 м.
Общий поток : 4441 Кбит/сек
Дата кодирования : UTC 2015-11-15 19:08:24
Программа кодирования : mkvmerge v8.3.0 ('Over the Horizon') 64bit
Библиотека кодирования : libebml v1.3.1 + libmatroska v1.4.2
DURATION : 01:16:43.264000000
NUMBER_OF_FRAMES : 143852
NUMBER_OF_BYTES : 220956672
_STATISTICS_WRITING_APP : mkvmerge v8.3.0 ('Over the Horizon') 64bit
_STATISTICS_WRITING_DATE_UTC : 2015-11-15 19:08:24
_STATISTICS_TAGS : BPS DURATION NUMBER_OF_FRAMES NUMBER_OF_BYTES
Видео
Идентификатор : 1
Формат : AVC
Формат/Информация : Advanced Video Codec
Профиль формата : Main@L3.1
Параметр CABAC формата : Нет
Параметр ReFrames формата : 2 кадра
Идентификатор кодека : V_MPEG4/ISO/AVC
Продолжительность : 1 ч. 16 м.
Битрейт : 3968 Кбит/сек
Ширина : 1280 пикселей
Высота : 536 пикселей
Соотношение сторон : 2,40:1
Режим частоты кадров : Постоянный
Частота кадров : 24,000 кадра/сек
Цветовое пространство : YUV
Субдискретизация насыщенности : 4:2:0
Битовая глубина : 8 бит
Тип развёртки : Прогрессивная
Бит/(Пиксели*Кадры) : 0.241
Размер потока : 2,13 Гбайт (89%)
Язык : English
Default : Да
Forced : Нет
Цветовой диапазон : Limited
Основные цвета : BT.709
Характеристики трансфера : BT.709
Коэффициенты матрицы : BT.709
Аудио
Идентификатор : 2
Формат : AC-3
Формат/Информация : Audio Coding 3
Расширение режима : CM (complete main)
Параметр Endianness формата : Big
Идентификатор кодека : A_AC3
Продолжительность : 1 ч. 16 м.
Вид битрейта : Постоянный
Битрейт : 384 Кбит/сек
Каналы : 6 каналов
Расположение каналов : Front: L C R, Side: L R, LFE
Частота : 48,0 КГц
Метод сжатия : С потерями
Размер потока : 211 Мбайт (9%)
Язык : Russian
Default : Да
Forced : Нет
Меню
00:00:00.000 : en:Глава 1
00:06:47.000 : en:Глава 2
00:12:59.000 : en:Глава 3
00:18:42.000 : en:Глава 4
00:24:24.000 : en:Глава 5
00:29:57.000 : en:Глава 6
00:35:52.000 : en:Глава 7
00:41:03.000 : en:Глава 8
00:46:30.000 : en:Глава 9
00:51:40.000 : en:Глава 10
00:57:47.000 : en:Глава 11
01:03:44.000 : en:Глава 12
01:08:52.000 : en:Глава 13

Скриншоты


[cybertorrent.ru].t2486.torrent 
Торрент: Зарегистрирован [ 2018-02-16 13:28 ] · 8388DD9AD6762DEAF652A6D75E5B61F793500A5F

Скачать .torrent

Скачать

12 KB

Статус: проверено
Скачан: 0 раз
Размер: 2,38 GB
Профиль [ЛС]
Показать сообщения:    

Текущее время: 21-Сен 11:27

Часовой пояс: UTC ± 0



Вы не можете начинать темы
Вы не можете отвечать на сообщения
Вы не можете редактировать свои сообщения
Вы не можете удалять свои сообщения
Вы не можете голосовать в опросах
Вы не можете прикреплять файлы к сообщениям
Вы можете скачивать файлы
Torrents24.ru открытый BitTorrent Torrents24.pl открытый BitTorrent CyberTorrent.ru открытый BitTorrent BtList.ru рейтинг BitTorrent трекеров Яндекс.Метрика