Статистика раздачи
Размер:  1,46 GB   |    Зарегистрирован:  3 месяца 9 дней   |    Скачан:  0 раз
Сидов:  106  [  0 KB/s  ]   Личеров:  2  [  0 KB/s  ]  
 
   
 
 

lopster ®

Пол:
Не указан
Стаж:
3 месяца 9 дней
Сообщений:
612

Любовь прет-а-порте- Жанр: Комедия
Год выпуска: 2017
Продолжительность: 01:21:55-Режиссёр: Макс Нардари-В ролях: Андреа Прети, Ольга Погодина, Михаил Химичев, Джанкарло Джаннини, Паоло Контичини, Лариса Удовиченко, Нино Фрассика, Тоска Д'Аквино, Пьетро Де Сильва, Алессандро Борги, Армандо Пиццути, Солена Ночентини, Антонио Де Маттео, Луис Молтени, Роберто Каррубба, Флора Канто-Описание: Он — знойный римский ловелас, избалованный сынок богатого папочки. Она — красавица, одинокая москвичка, которая всю жизнь ждала того, единственного. Он всю жизнь флиртовал, играл, блефовал. Она трудилась, презирая ложь и компромиссы. Одна короткая встреча в Риме запутала их жизни в яркий клубок надежд, обломов и страсти. Он стал для неё тем, кого она готова была полюбить, но не могла… Она стала для него той, ради которой стоило лгать, как никогда в жизни… А чего не сделаешь ради любви?..- / -Качество видео: WEB-DLRip
Формат видео: AVI
Видео: 704x384 (1.85:1), 25.000 fps, XviD build 73, 2159 Kbps, 0.31 Bits/Pixel
Аудио: 48 kHz, AC3 Dolby Digital, 3/2 (L,C,R,l,r) + LFE ch, 384 Kbps | iTunes
Релиз от: MegaPeer

MediaInfo

General
Complete name : Downloads\Lubov.v.Pretaport.2017.WEB-DLRip.1.46Gb.MegaPeer.avi
Format : AVI
Format/Info : Audio Video Interleave
File size : 1.46 GiB
Duration : 1h 21mn
Overall bit rate : 2 551 Kbps
Video #0
ID : 0
Format : MPEG-4 Visual
Format profile : Advanced Simple@L5
Format settings, BVOP : 1
Format settings, QPel : No
Format settings, GMC : No warppoints
Format settings, Matrix : Custom
Codec ID : XVID
Codec ID/Hint : XviD
Duration : 1h 21mn
Bit rate : 2 159 Kbps
Width : 704 pixels
Height : 384 pixels
Display aspect ratio : 1.85:1
Frame rate : 25.000 fps
Color space : YUV
Chroma subsampling : 4:2:0
Bit depth : 8 bits
Scan type : Progressive
Compression mode : Lossy
Bits/(Pixel*Frame) : 0.319
Stream size : 1.24 GiB (85%)
Writing library : XviD 73
Audio #1
ID : 1
Format : AC-3
Format/Info : Audio Coding 3
Mode extension : CM (complete main)
Format settings, Endianness : Big
Codec ID : 2000
Duration : 1h 21mn
Bit rate mode : Constant
Bit rate : 384 Kbps
Channel(s) : 6 channels
Channel positions : Front: L C R, Side: L R, LFE
Sampling rate : 48.0 KHz
Bit depth : 16 bits
Compression mode : Lossy
Stream size : 225 MiB (15%)
Alignment : Aligned on interleaves
Interleave, duration : 64 ms (1.60 video frames)
Interleave, preload duration : 192 ms
Title : iTunes

Скриншот c названием фильма

Скриншоты

[cybertorrent.ru].t249.torrent 
Торрент: Зарегистрирован [ 2018-02-15 15:34 ] · ECC68C949A8ECB4BAC694876CD579CFF5E23881A

Скачать .torrent

Скачать

15 KB

Статус: проверено
Скачан: 0 раз
Размер: 1,46 GB
Профиль [ЛС]
Показать сообщения:    

Текущее время: 25-Май 08:57

Часовой пояс: UTC ± 0



Вы не можете начинать темы
Вы не можете отвечать на сообщения
Вы не можете редактировать свои сообщения
Вы не можете удалять свои сообщения
Вы не можете голосовать в опросах
Вы не можете прикреплять файлы к сообщениям
Вы можете скачивать файлы