Статистика раздачи
Размер:  634 MB   |    Зарегистрирован:  5 месяцев 5 дней   |    Скачан:  0 раз

Полного источника не было: Никогда

Личеров:  8  [  0 KB/s  ]  
 
   
 
 

DR_KTO ®

Пол:
Не указан
Стаж:
5 месяцев 6 дней
Сообщений:
105

Спокойной ночи, Малыши (Крот и зеленая звезда)- Дата/Год выпуска: 2001
Страна: Россия
Жанр: Семейный, Передача, Для Самых Маленьких
Продолжительность: 12:05
Телеканал: Культура-Описание: Самая известная детская передача "Спокойной ночи, малыши!" в эфире 45 лет. Сегодня ее смотрит уже третье поколение телезрителей. Программа является абсолютным рекордсменом по продолжительности существования и популярности. Созданная специально для детей от 3 до 7 лет, передача не имеет возрастных ограничений, так как вместе с ребенком ее с удовольствием смотрят родители, бабушки, дедушки. Герои передачи - Хрюша, Степашка, Филя, Каркуша и Мишка - это пять дружных зверюшек. В своей квартире, полной чудес и неожиданных сказочных вещей герои встречают своих взрослых друзей, узнают много нового об окружающем их мире и, конечно же, делятся своими открытиями с детьми. Сюжеты проникнуты доброжелательностью и мягким юмором, наполнены яркими красками. Обучение ребенка происходит ненавязчиво в игровой форме...-Релиз от: hukin07-Доп. информация
Запись с канала 2001г.
-качество: VHSRip
формат: MPG
Видео: MPEG2 Video 720x576 (4:3), 6 794 Kbps, 25 fps
Аудио: MPEG Audio, 48Hz, stereo, 224kbps, 2 ch

MediaInfo

General
Complete name : D:\Раздачи\Спокойной ночи, малыши\Спокойной ночи, малыши 2001 (Крот и зеленая звезда)\Спокойной ночи, малыши 2001 (Крот и зеленая звезда)_VHSRip by hukin07.mpg
Format : MPEG-PS
File size : 634 MiB
Duration : 12mn 4s
Overall bit rate mode : Variable
Overall bit rate : 7 338 Kbps
Video
ID : 224 (0xE0)
Format : MPEG Video
Format version : Version 2
Format profile : Main@Main
Format settings, BVOP : Yes
Format settings, Matrix : Custom
Format settings, GOP : M=3, N=15
Format settings, picture struc : Frame
Duration : 12mn 4s
Bit rate mode : Variable
Bit rate : 6 968 Kbps
Maximum bit rate : 8 000 Kbps
Width : 720 pixels
Height : 576 pixels
Display aspect ratio : 4:3
Frame rate : 25.000 fps
Standard : PAL
Color space : YUV
Chroma subsampling : 4:2:0
Bit depth : 8 bits
Scan type : Interlaced
Scan order : Top Field First
Compression mode : Lossy
Bits/(Pixel*Frame) : 0.672
Time code of first frame : 00:00:00:00
Time code source : Group of pictures header
GOP, Open/Closed : Open
GOP, Open/Closed of first fram : Closed
Stream size : 602 MiB (95%)
Audio
ID : 192 (0xC0)
Format : MPEG Audio
Format version : Version 1
Format profile : Layer 2
Duration : 12mn 4s
Bit rate mode : Constant
Bit rate : 224 Kbps
Channel(s) : 2 channels
Sampling rate : 48.0 KHz
Compression mode : Lossy
Stream size : 19.4 MiB (3%)
Menu

Скриншоты

[cybertorrent.ru].t2494.torrent 
Торрент: Зарегистрирован [ 2018-02-16 13:28 ] · 825730B7BBB2B5EDFDF180058C1E9B4F5A7F393C

Скачать .torrent

Скачать

13 KB

Статус: проверено
Скачан: 0 раз
Размер: 634 MB
Профиль [ЛС]
Показать сообщения:    

Текущее время: 21-Июл 23:04

Часовой пояс: UTC ± 0



Вы не можете начинать темы
Вы не можете отвечать на сообщения
Вы не можете редактировать свои сообщения
Вы не можете удалять свои сообщения
Вы не можете голосовать в опросах
Вы не можете прикреплять файлы к сообщениям
Вы можете скачивать файлы