Статистика раздачи
Размер:  1,46 GB   |    Зарегистрирован:  3 месяца 12 дней   |    Скачан:  0 раз
Сидов:  59  [  0 KB/s  ]   Личеров:  1  [  0 KB/s  ]  
 
   
 
 

lopster ®

Пол:
Не указан
Стаж:
3 месяца 12 дней
Сообщений:
612

С пяти до семи- Жанр: Мелодрама, драма
Год выпуска: 2015
Продолжительность: 01:42:39
Режиссёр: Владимир Щегольков
В ролях: Дарья Мельникова, Александр Ильин мл., Дмитрий Муляр, Ирина Бутанаева, Амаду Мамадаков, Илзе Блауберга, Матин Умаров, Константин Шелестун, Иева Сеглиня, Эдгарс Озолиньш, Мадара Мелне-Томсоне, Гундарс Аболиньш, Дарья Екамасова-Описание: Он ждал Анну. В кафе. Полгода. С пяти до семи.
Но пришла другая. Кафе стало местом их встреч.
Он и Она. Их истории. Попытки освободиться от прежней любви и начать новую жизнь. Все придется решить здесь — за столиком кафе-Сэмпл: http://multi-up.com/1147784-Качество видео: WEB-DLRip
Формат видео: AVI
Видео: 704x288 (2.40:1), 24.000 fps, XviD build 73, 1641 Kbps, 0.33 Bits/Pixel
Аудио: 48 kHz, AC3 Dolby Digital, 3/2 (L,C,R,l,r) + LFE ch, 384 Kbps

MediaInfo

General
Complete name : Downloads\S.pyati.do.semi.2015.WEB-DLRip
Format : AVI
Format/Info : Audio Video Interleave
File size : 1.46 GiB
Duration : 1h 42mn
Overall bit rate : 2 032 Kbps
Video #0
ID : 0
Format : MPEG-4 Visual
Format profile : Advanced Simple@L5
Format settings, BVOP : 1
Format settings, QPel : No
Format settings, GMC : No warppoints
Format settings, Matrix : Custom
Codec ID : XVID
Codec ID/Hint : XviD
Duration : 1h 42mn
Bit rate : 1 641 Kbps
Width : 704 pixels
Height : 288 pixels
Display aspect ratio : 2.40:1
Frame rate : 24.000 fps
Color space : YUV
Chroma subsampling : 4:2:0
Bit depth : 8 bits
Scan type : Progressive
Compression mode : Lossy
Bits/(Pixel*Frame) : 0.337
Stream size : 1.18 GiB (81%)
Writing library : XviD 73
Audio #1
ID : 1
Format : AC-3
Format/Info : Audio Coding 3
Mode extension : CM (complete main)
Format settings, Endianness : Big
Codec ID : 2000
Duration : 1h 42mn
Bit rate mode : Constant
Bit rate : 384 Kbps
Channel(s) : 6 channels
Channel positions : Front: L C R, Side: L R, LFE
Sampling rate : 48.0 KHz
Bit depth : 16 bits
Compression mode : Lossy
Stream size : 282 MiB (19%)
Alignment : Aligned on interleaves
Interleave, duration : 64 ms (1.54 video frames)
Interleave, preload duration : 192 ms
Title : iTunes

Скриншот c названием фильма

Скриншоты

[cybertorrent.ru].t250.torrent 
Торрент: Зарегистрирован [ 2018-02-15 15:34 ] · 5B29DE8BBDCE07B9E0B430B4D3CAEDCE700993B8

Скачать .torrent

Скачать

15 KB

Статус: проверено
Скачан: 0 раз
Размер: 1,46 GB
Профиль [ЛС]
Показать сообщения:    

Текущее время: 28-Май 03:07

Часовой пояс: UTC ± 0



Вы не можете начинать темы
Вы не можете отвечать на сообщения
Вы не можете редактировать свои сообщения
Вы не можете удалять свои сообщения
Вы не можете голосовать в опросах
Вы не можете прикреплять файлы к сообщениям
Вы можете скачивать файлы