Статистика раздачи
Размер:  1,08 GB   |    Зарегистрирован:  9 месяцев   |    Скачан:  0 раз

Полного источника не было: Никогда

Личеров:  4  [  0 KB/s  ]  
 
   
 
 

DR_KTO ®

Пол:
Не указан
Стаж:
9 месяцев 2 дня
Сообщений:
105

С Рождеством от всего сердца! / From All Of Us To All Of You
Год выпуска: 2014
Страна: США
Жанр: новогодняя музыкальная фантазия
Продолжительность: 00:48:51
Перевод: Профессиональный (дублированный)
Русские субтитры: нет
Режиссёр: Walt Disney
Описание: музыкальная фантазия по мотивам самых известных и любимых мультфильмов Уолта Диснея ...
Доп. информация: Запись (захват) спутниковой трансляции канала "Дисней".
Список анимационных мультфильмов:
01. Мастерская Санта Клауса / Santa's Workshop (1932)
02. Питер Пэн / Peter Pan (1953) - фрагмент
03. Бэмби / Bambi (1942) - фрагмент
04. Пиноккио / Pinocchio (1940) - фрагмент
05. Золушка / Cinderella (1950) - фрагмент
06. Белоснежка и семь гномов / Snow White And The Seven Dwarfs (1937) - фрагмент
07. Русалочка / The Little Mermaid (1989) - фрагмент
08. Красавица и чудовище / Beauty And The Beast (1991) - фрагмент
09. Рождественская история Микки / Mickey's Christmas Carol (1983)
10. Город героев / Big Hero 6 (2014) - фрагмент
11. Холодное сердце / Frozen (2013) - фрагмент
Релиз группы:
Семпл: https://yadi.sk/i/WlWkf3wHmbqUN
Качество видео: DVB
Формат видео: MPEG-PS
Видео: MPEG2 Video, 720x576 (4:3), 25 fps, 2900 kbps
Аудио: MPEG Audiо, 2 сh, 48 kHz, 192 kbps

MediaInfo

General
Complete name : G:\С Рождеством от всего сердца. (2014)_DVB by SLuMeP.mpg
Format : MPEG-PS
File size : 1.08 GiB
Duration : 48mn 51s
Overall bit rate mode : Variable
Overall bit rate : 3 176 Kbps
Writing library : (c) 1998-2010 Womble Multimedia, Inc. / MPEG Video Wizard DVD 5.0.0.114 (01/2010) / Apr 20 2010
Video
ID : 224 (0xE0)
Format : MPEG Video
Format version : Version 2
Format profile : Main@Main
Format settings, BVOP : Yes
Format settings, Matrix : Custom
Format settings, GOP : Variable
Format settings, picture struc : Frame
Duration : 48mn 51s
Bit rate mode : Variable
Bit rate : 2 921 Kbps
Maximum bit rate : 15.0 Mbps
Width : 720 pixels
Height : 576 pixels
Display aspect ratio : 4:3
Frame rate : 25.000 fps
Standard : PAL
Color space : YUV
Chroma subsampling : 4:2:0
Bit depth : 8 bits
Scan type : Interlaced
Scan order : Top Field First
Compression mode : Lossy
Bits/(Pixel*Frame) : 0.282
Time code of first frame : 00:00:00:00
Time code source : Group of pictures header
GOP, Open/Closed : Open
GOP, Open/Closed of first fram : Closed
Stream size : 1 021 MiB (92%)
Writing library : (c) 1998-2010 Womble Multimedia, Inc. / MPEG Video Wizard DVD 5.0.0.114 (01/2010) / Apr 20 2010
Audio
ID : 192 (0xC0)
Format : MPEG Audio
Format version : Version 1
Format profile : Layer 2
Duration : 48mn 51s
Bit rate mode : Constant
Bit rate : 192 Kbps
Channel(s) : 2 channels
Sampling rate : 48.0 KHz
Compression mode : Lossy
Stream size : 67.1 MiB (6%)
Menu

Скриншоты


[cybertorrent.ru].t2509.torrent 
Торрент: Зарегистрирован [ 2018-02-16 13:28 ] · 4D1CF4340801D9EC2A0CD5C925036F1AB3150319

Скачать .torrent

Скачать

11 KB

Статус: проверено
Скачан: 0 раз
Размер: 1,08 GB
Профиль [ЛС]
Показать сообщения:    

Текущее время: 17-Ноя 12:39

Часовой пояс: UTC ± 0



Вы не можете начинать темы
Вы не можете отвечать на сообщения
Вы не можете редактировать свои сообщения
Вы не можете удалять свои сообщения
Вы не можете голосовать в опросах
Вы не можете прикреплять файлы к сообщениям
Вы можете скачивать файлы
Torrents24.ru открытый BitTorrent Torrents24.pl открытый BitTorrent CyberTorrent.ru открытый BitTorrent BtList.ru рейтинг BitTorrent трекеров Яндекс.Метрика