Статистика раздачи
Размер:  2,18 GB   |    Зарегистрирован:  3 месяца 9 дней   |    Скачан:  0 раз

Полного источника не было: Никогда

Личеров:  1  [  0 KB/s  ]  
 
   
 
 

lopster ®

Пол:
Не указан
Стаж:
3 месяца 9 дней
Сообщений:
612

-Самоубийцы--Год выпуска: 2012Жанр: комедияПродолжительность: 01:29:12--Режиссер:Егор Баранов-В ролях:Евгений Стычкин, Алексей Воробьев, Оксана Акиньшина, Гоша Куценко, Вилле Хаапасало, Марат Башаров, Михаил Полицеймако, Александр Стриженов, Евгений Рахманько, Даниил Меркулов, Павел Прилучный, Виктор Супрун, Татьяна Швыдкова, Олег Лабозин, Данил Лавренов, Евгений Харланов, Николай Зазуля, Константин Мурзенко-Описание:
Комедия о головокружительных приключениях трех друзей — Алексея, Толика и Марины, которые решили свести счеты с жизнью. Собрав вокруг себя неприкаянных единомышленников, новые друзья решают напоследок исполнить по последнему желанию друг друга. Это, на первый взгляд, безобидное решение превращает жизнь героев в непрерывный калейдоскоп феерических событий. Чем активнее друзья исполняют самые неожиданные желания друг друга, тем невероятнее истории, в которые они попадают.
--Дополнительная информация:- -Сэмпл Рип НЕ совместим с бытовыми DVD-проигрывателями.--Качество видео: HDRip-AVC (Исходник: BDRip 1080p )
Формат видео: MKV
Видео: AVC (x264), 1152x490 (2.35:1), 24.000 fps, ~2995 kbps avg, 0.216 bit/pixel
Аудио: 48 kHz, AC3 Dolby Digital, 3/2 (L,C,R,l,r) + LFE ch, 448 kbps
Главы: есть-

MediaInfo/log

log

x264 [info]: frame I:49 Avg QP:14.89 size: 73833
x264 [info]: frame P:556 Avg QP:18.54 size: 27513
x264 [info]: frame B:1921 Avg QP:19.69 size: 9845
x264 [info]: consecutive B-frames: 3.8% 2.2% 9.3% 21.1% 10.5% 47.0% 3.0% 1.0% 1.1% 0.0% 0.0% 0.5% 0.0% 0.0% 0.6% 0.0% 0.0%
x264 [info]: mb I I16..4: 8.8% 69.9% 21.3%
x264 [info]: mb P I16..4: 2.0% 17.8% 3.2% P16..4: 29.5% 30.9% 11.4% 0.0% 0.0% skip: 5.3%
x264 [info]: mb B I16..4: 0.7% 2.3% 0.4% B16..8: 31.1% 21.8% 4.2% direct: 7.0% skip:32.5% L0:43.0% L1:40.8% BI:16.2%
x264 [info]: 8x8 transform intra:73.5% inter:58.0%
x264 [info]: direct mvs spatial:98.9% temporal:1.1%
x264 [info]: coded y,uvDC,uvAC intra: 79.5% 76.0% 54.0% inter: 26.6% 21.2% 7.2%
x264 [info]: i16 v,h,dc,p: 61% 11% 7% 21%
x264 [info]: i8 v,h,dc,ddl,ddr,vr,hd,vl,hu: 10% 10% 9% 8% 12% 11% 13% 11% 15%
x264 [info]: i4 v,h,dc,ddl,ddr,vr,hd,vl,hu: 14% 12% 12% 7% 12% 12% 12% 9% 12%
x264 [info]: i8c dc,h,v,p: 32% 34% 20% 14%
x264 [info]: Weighted P-Frames: Y:5.0% UV:2.7%
x264 [info]: ref P L0: 53.8% 8.0% 14.6% 7.4% 4.8% 3.7% 2.5% 1.5% 1.1% 0.8% 0.6% 0.5% 0.3% 0.3% 0.2% 0.0%
x264 [info]: ref B L0: 75.9% 11.9% 4.9% 2.3% 1.5% 1.1% 0.8% 0.5% 0.4% 0.3% 0.2% 0.2% 0.1% 0.0%
x264 [info]: ref B L1: 95.3% 4.7%
x264 [info]: kb/s:2994.97
General
Unique ID : 207218490039550188387157224963339988301 (0x9BE4D45A191C96B9BEAAB8CCB1602D4D)
Complete name : \Samoubiyci_(2012).HDRip-AVC.ac3_[All.Films][RG].mkv
Format : Matroska
Format version : Version 2
File size : 2.18 GiB
Duration : 1 h 29 min
Overall bit rate : 3 497 kb/s
Movie name : Самоубийцы (2012) HDRip-AVC | [All.Films][RG][rutracker.org]
Encoded date : UTC 2017-04-02 06:14:54
Writing application : mkvmerge v6.9.1 ('Blue Panther') 32bit built on Apr 18 2014 18:15:44
Writing library : libebml v1.3.0 + libmatroska v1.4.1
Video
ID : 1
Format : AVC
Format/Info : Advanced Video Codec
Format profile : High@L4.1
Format settings, CABAC : Yes
Format settings, ReFrames : 11 frames
Codec ID : V_MPEG4/ISO/AVC
Duration : 1 h 29 min
Bit rate : 3 049 kb/s
Width : 1 152 pixels
Height : 490 pixels
Display aspect ratio : 2.35:1
Frame rate mode : Constant
Frame rate : 25.000 FPS
Color space : YUV
Chroma subsampling : 4:2:0
Bit depth : 8 bits
Scan type : Progressive
Bits/(Pixel*Frame) : 0.216
Stream size : 1.86 GiB (85%)
Writing library : x264 core 148 r2744kMod b97ae06
Encoding settings : cabac=1 / ref=11 / deblock=1:-2:-2 / analyse=0x3:0x113 / me=umh / subme=11 / psy=1 / fade_compensate=0.00 / psy_rd=1.00:0.05 / mixed_ref=1 / me_range=38 / chroma_me=1 / trellis=2 / 8x8dct=1 / cqm=0 / deadzone=21,11 / fast_pskip=0 / chroma_qp_offset=-3 / threads=6 / lookahead_threads=1 / sliced_threads=0 / nr=0 / decimate=0 / interlaced=0 / bluray_compat=0 / constrained_intra=0 / bframes=11 / b_pyramid=2 / b_adapt=2 / b_bias=0 / direct=3 / weightb=1 / open_gop=0 / weightp=2 / keyint=240 / keyint_min=24 / scenecut=40 / intra_refresh=0 / rc_lookahead=60 / rc=2pass / mbtree=0 / bitrate=3049 / ratetol=1.0 / qcomp=0.60 / qpmin=0 / qpmax=69 / qpstep=4 / cplxblur=20.0 / qblur=0.5 / vbv_maxrate=14000 / vbv_bufsize=14000 / nal_hrd=none / filler=0 / ip_ratio=1.40 / pb_ratio=1.30 / aq=3:0.90 / zones=127500,133826,q=30
Default : Yes
Forced : No
Audio
ID : 2
Format : AC-3
Format/Info : Audio Coding 3
Mode extension : CM (complete main)
Format settings, Endianness : Big
Codec ID : A_AC3
Duration : 1 h 29 min
Bit rate mode : Constant
Bit rate : 448 kb/s
Channel(s) : 6 channels
Channel positions : Front: L C R, Side: L R, LFE
Sampling rate : 48.0 kHz
Frame rate : 31.250 FPS (1536 spf)
Compression mode : Lossy
Stream size : 286 MiB (13%)
Language : Russian
Default : Yes
Forced : No
Menu
00:00:00.000 : en:Chapter 01
00:01:40.720 : en:Chapter 02
00:08:03.280 : en:Chapter 03
00:21:37.359 : en:Chapter 04
00:30:47.440 : en:Chapter 05
00:40:09.520 : en:Chapter 06
00:51:03.280 : en:Chapter 07
01:03:37.840 : en:Chapter 08
01:14:58.960 : en:Chapter 09

FAQ по просмотру MKV/h.264/AAC

  • Смогу ли я запустить AVC фильм на своём компьютере?
  • Сампл из раздачи не воспроизводится/тормозит или отсутствует звук/изображение. Что делать?
  • Что такое H.264/AVC и зачем он нужен?
  • Что за дурацкий формат .MKV?
  • Почему MKV? Чем AVI хуже?
  • Не могу переключить/включить/выключить аудио/видео дорожки и/или субтитры. Что делать?
  • Как сделать так, чтобы по умолчанию при просмотре MKV файлов нужные/ненужные субтитры были включены/выключены, и/или сразу проигрывалась дорожка на нужном мне языке?
  • Будут ли фильмы в таком формате проигрываться на бытовых плеерах без компьютера?
  • Проигрываю фильм, а картинка очень сильно отличается от скринов/бледная/перенасыщенная. Что не так?
  • Можно ли сконвертировать AVC в DVD?
  • Почему сплюснута картинка / в характеристиках видео указано два разрешения / что такое анаморфное разрешение?
  • Зачем релизёры обманывают качающих и пишут в заголовке 720p/1080p, а на самом деле раздают видеоматериалы в непонятных разрешениях?
  • Можно ли вывести многоканальный FLAC/AAC-звук на внешний ресивер?
  • У меня 2-канальная акустика/стереонаушники. При просмотре видео почти не слышно/совсем не слышно речь/разговоры, играют только фоновые звуки. Что делать?
  • У меня стоит CoreAVC версии 1.9.5 или младше. При воспроизведении картинка рассыпается на квадраты и разноцветные пятна. Кривой рип?
  • Всё прочитал(-а), решения своей проблемы не нашёл(-шла)/не смог(-ла) разобраться. Что делать?
  • [cybertorrent.ru].t251.torrent 
    Торрент: Зарегистрирован [ 2018-02-15 15:34 ] · 6CE604443F85C9264C78981E22FAA346BB1D463F

    Скачать .torrent

    Скачать

    11 KB

    Статус: проверено
    Скачан: 0 раз
    Размер: 2,18 GB
    Профиль [ЛС]
    Показать сообщения:    

    Текущее время: 25-Май 09:03

    Часовой пояс: UTC ± 0



    Вы не можете начинать темы
    Вы не можете отвечать на сообщения
    Вы не можете редактировать свои сообщения
    Вы не можете удалять свои сообщения
    Вы не можете голосовать в опросах
    Вы не можете прикреплять файлы к сообщениям
    Вы можете скачивать файлы