Статистика раздачи
Размер:  13 MB   |    Зарегистрирован:  7 месяцев 6 дней   |    Скачан:  0 раз

Полного источника не было: Никогда

Личеров:  1  [  0 KB/s  ]  
 
   
 
 

soda ®

Пол:
Не указан
Стаж:
7 месяцев 7 дней
Сообщений:
229

Кочин Па! / Kochin Pa!
Страна: Япония
Год выпуска: 2015 г.
Жанр: комедия
Тип: TV
Продолжительность: ХХ эп. по 15 сек.
Режиссер: Сугахара Сота
Описание: Ультракороткосерийная анимешка нового поколения насквозь коммерческого характера, рекламирующая игровые автоматы пачинко.
Качество: WEBRip
Тип релиза: Без хардсаба
Формат видео: MР4
Наличие линковки: Нет
Релиз/Автор рипа: KasaiDot
Видео: H264, 1280x720, 8bits, 2625kbps, 29.970fps
Аудио: AAC, 2ch, 192kbps, 44.1kHz Язык Японский
Субтитры: ass, отдельным файлом Язык субтитров русский ; Перевод: Werebeast

Подробные тех. данные

Format : MPEG-4
Format profile : Base Media / Version 2
Codec ID : mp42
File size : 5.06 MiB
Duration : 15s 68ms
Overall bit rate mode : Variable
Overall bit rate : 2 817 Kbps
Video
ID : 1
Format : AVC
Format/Info : Advanced Video Codec
Format profile : High@L3.1
Format settings, CABAC : Yes
Format settings, ReFrames : 1 frame
Codec ID : avc1
Codec ID/Info : Advanced Video Coding
Duration : 15s 48ms
Bit rate : 2 625 Kbps
Maximum bit rate : 6 711 Kbps
Width : 1 280 pixels
Height : 720 pixels
Display aspect ratio : 16:9
Frame rate mode : Constant
Frame rate : 29.970 fps
Color space : YUV
Chroma subsampling : 4:2:0
Bit depth : 8 bits
Scan type : Progressive
Bits/(Pixel*Frame) : 0.095
Stream size : 4.71 MiB (93%)
Audio
ID : 2
Format : AAC
Format/Info : Advanced Audio Codec
Format profile : LC
Codec ID : 40
Duration : 15s 68ms
Bit rate mode : Variable
Bit rate : 192 Kbps
Maximum bit rate : 205 Kbps
Channel count : 2 channels
Channel positions : Front: L R
Sampling rate : 44.1 KHz
Compression mode : Lossy
Stream size : 353 KiB (7%)
Language : English

Список эпизодов

1. Парарира Айра
2. Чибитто Айра
3. Эн-Айра

Скриншоты

[cybertorrent.ru].t2518.torrent 
Торрент: Зарегистрирован [ 2018-02-16 14:23 ] · 53F68D3CE6C8104016B9F0CB4D64649E4A405C75

Скачать .torrent

Скачать

5 KB

Статус: проверено
Скачан: 0 раз
Размер: 13 MB
Профиль [ЛС]
Показать сообщения:    

Текущее время: 22-Сен 18:36

Часовой пояс: UTC ± 0



Вы не можете начинать темы
Вы не можете отвечать на сообщения
Вы не можете редактировать свои сообщения
Вы не можете удалять свои сообщения
Вы не можете голосовать в опросах
Вы не можете прикреплять файлы к сообщениям
Вы можете скачивать файлы
Torrents24.ru открытый BitTorrent Torrents24.pl открытый BitTorrent CyberTorrent.ru открытый BitTorrent BtList.ru рейтинг BitTorrent трекеров Яндекс.Метрика