Статистика раздачи
Размер:  1,46 GB   |    Зарегистрирован:  3 месяца 7 дней   |    Скачан:  0 раз
Сидов:  5  [  0 KB/s  ]  
 
   
 
 

lopster ®

Пол:
Не указан
Стаж:
3 месяца 7 дней
Сообщений:
612

Огни большой деревни- Жанр: Комедия
Год выпуска: 2016
Продолжительность: 01:21:22-Режиссёр: Илья Учитель-В ролях: Кирилл Фролов, Максим Емельянов, Анастасия Мытражик, Дмитрий Дюжев, Юрий Быков, Василий Кортуков, Тагир Рахимов, Карен Мартиросян, Кирилл Полухин, Анна Воркуева-Описание: Феде 20 лет. Он трудится киномехаником в провинциальном кинотеатре «Родина», тщетно пытаясь привлечь туда зрителей. Когда местные власти решают превратить «Родину» в магазин, выход остается только один – самому снять успешный фильм и таким образом спасти кинотеатр! А что нужно, чтобы собрать кассу? Конечно же звезда!
Отчаянные времена требуют отчаянных мер, и ребята крадут знаменитость из проезжающего мимо их городка поезда. Но это не просто звезда - это Дмитрий Дюжев!
Да, может, он и не горит желанием сниматься, но это не беда, если есть веревки, кляп и снотворное. Еще есть отчаянный продюсер-дембель, свадебный оператор-философ и актриса-каратистка Женя, в которую Федя тайно влюблен. Итак, массовка готова, оператор трезв, а актер уже на площадке и талантливо выкрикивает заглушаемые кляпом реплики. Камера! Мотор! Начали…
Какие только сложности не встретятся на пути самодеятельной съемочной группы! Но огонь в глазах творцов и жителей всего городка поможет довести дело до конца!
Сэмпл: http://multi-up.com/1148322
Качество видео: WEB-DLRip
Формат видео: AVI
Видео: 720x304 (2.35:1), 24.000 fps, XviD build 73, 2175 Kbps, 0.41 Bits/Pixel
Аудио: 48 kHz, AC3 Dolby Digital, 3/2 (L,C,R,l,r) + LFE ch, 384 Kbps | iTunes-Релиз от: MegaPeer-

MediaInfo

General
Complete name :Downloads\Ogni.bolshoy.derevni.2017.WEB-DLRip.1.46Gb.MegaPeer.avi
Format : AVI
Format/Info : Audio Video Interleave
File size : 1.46 GiB
Duration : 1h 21mn
Overall bit rate : 2 566 Kbps
Video #0
ID : 0
Format : MPEG-4 Visual
Format profile : Advanced Simple@L5
Format settings, BVOP : 1
Format settings, QPel : No
Format settings, GMC : No warppoints
Format settings, Matrix : Custom
Codec ID : XVID
Codec ID/Hint : XviD
Duration : 1h 21mn
Bit rate : 2 175 Kbps
Width : 720 pixels
Height : 304 pixels
Display aspect ratio : 2.35:1
Frame rate : 24.000 fps
Color space : YUV
Chroma subsampling : 4:2:0
Bit depth : 8 bits
Scan type : Progressive
Compression mode : Lossy
Bits/(Pixel*Frame) : 0.414
Stream size : 1.24 GiB (85%)
Writing library : XviD 73
Audio #1
ID : 1
Format : AC-3
Format/Info : Audio Coding 3
Mode extension : CM (complete main)
Format settings, Endianness : Big
Codec ID : 2000
Duration : 1h 21mn
Bit rate mode : Constant
Bit rate : 384 Kbps
Channel(s) : 6 channels
Channel positions : Front: L C R, Side: L R, LFE
Sampling rate : 48.0 KHz
Bit depth : 16 bits
Compression mode : Lossy
Stream size : 223 MiB (15%)
Alignment : Aligned on interleaves
Interleave, duration : 64 ms (1.54 video frames)
Interleave, preload duration : 192 ms
Title : iTunes

Скриншот c названием фильма

Скриншоты

[cybertorrent.ru].t252.torrent 
Торрент: Зарегистрирован [ 2018-02-15 15:34 ] · 7606E9F31804F77D66C14CD93880614F090740EE

Скачать .torrent

Скачать

15 KB

Статус: проверено
Скачан: 0 раз
Размер: 1,46 GB
Профиль [ЛС]
Показать сообщения:    

Текущее время: 23-Май 07:10

Часовой пояс: UTC ± 0



Вы не можете начинать темы
Вы не можете отвечать на сообщения
Вы не можете редактировать свои сообщения
Вы не можете удалять свои сообщения
Вы не можете голосовать в опросах
Вы не можете прикреплять файлы к сообщениям
Вы можете скачивать файлы