Статистика раздачи
Размер:  2,63 GB   |    Зарегистрирован:  7 месяцев 6 дней   |    Скачан:  0 раз

Полного источника не было: Никогда

 
   
 
 

Cyber ®

Пол:
Не указан
Стаж:
7 месяцев 7 дней
Сообщений:
291

Буквальные истории
(33 фильма о буквах русского алфавита)
Страна: Россия
Жанр: Анимационный сериал
Продолжительность: 33 х ~ 00:01:42
Год выпуска: 2013-2014
Производство: Школа-студия анимационного кино "Шар"
Русские субтитры: нет
Режиссёр: Елизавета Скворцова, Вероника Федорова
Художник-постановщик: Анастасия Жакулина
Анимация: Карина Погорелова
Звукорежиссёр: Софья Трифонова
Описание: "Буквальные истории" - сериал замечательной Елизаветы Скворцовой, хорошо уже известной любителям анимации по огромному циклу "Колыбельные мира", а также по некоторым эпизодам сериала "Везуха!" ("Рыбный день", например). Вдохновленная книгой Евгения Клюева "Когда А была Арбалетом", Лиза на этот раз решила сделать мультипликационную азбуку. Задачка не из легких. Мало того, что для каждой буквы был найден похожий предмет (Арбалет для А, Обжора для О, Завитушка для З, Щетка для Щ и пр.), мало что каждый маленький эпизод рассказывает удивительную историю превращения предмета в букву, но к тому же в это повествование нужно уместить как можно больше других предметов, начинающихся с той же буквы... И ведь у всего должна быть логика, пусть странная, пусть абсурдная, но все же...

скрытый текст

Об арбузах, дынях, носорогах и богахКогда я только начинал учиться читать, меня все время удивляли рисунки
к азбукам. При букве А обычно рисовали арбуз, который совсем не похож
на букву А, при букве Д - дыня, которая овальной своей формой никак
не желала напоминать букву Д. Или, например, при букве Н изображался
носорог, хотя... сами посудите, что общего у толстого носорога - с двумя
худосочными палками, соединёнными жердочкой посередине!
В конце концов я всё-таки научился читать: арбуз, дыня и носорог
перестали быть мне нужны, чтобы узнавать буквы. Но как же долго ещё
преследовали моё воображение эти арбуз, дыня и носорог, так никогда
и не понадобившиеся мне в дальнейшем!
А между тем мир вокруг нас полон букв! Посмотрите на арку моста:
не похожа ли она на букву А? Так зачем же рисовать вместо неё арбуз -
разве арбуз похож на арку моста? Или посмотрите на букву О: не напоминает
ли она обруч? Стоит ли тогда рисовать вместо обруча - оленя,
у которого нет никакого сходства с обручем?
Ведь всё вокруг нас уже нарисовано - и нам остаётся только узнать в этих
рисунках буквы, остаётся только понять, что начертания букв не случайны
и что когда-то давным давно буквы были срисованы нашими предками
с окружавших их предметов.
Включитесь же в игру: ищите буквы вокруг себя и помогайте находить их детям.
И будьте уверены: дети никогда не забудут, что было такое время, когда...
Когда А была арбалетом.
Когда Д была домиком.
Когда Х была хлопушкой.
Включитесь в игру и станьте богами, которые, веселясь, творят мир.
Евгений Клюев
Доп. материалы: отсутствуют
Семпл: http://multi-up.com/1082523
Качество: DVD5
Формат: DVD-video
Видео: PAL 4:3 (720х576) VBR 6311 Кбит/сек
Аудио: Русский (AC3, 2ch. 192 Кбит/сек)
Субтитры: Отсутствуют

Список серий

1. Когда А была Арбалетом
2. Когда Б была Белкой
3. Когда В была Верблюдом
4. Когда Г была Грабителем
5. Когда Д была Домиком
6. Когда Е была Елью
7. Когда Ё была Ёжиком
8. Когда Ж была Жуком
9. Когда З была Завитушкой
10. Когда И была Иголкой
11. Когда Й была Йодом
12. Когда К была Колокольчиком
13. Когда Л была Лирой
14. Когда М была Мостом
15. Когда Н была Насестом
16. Когда О была Обжорой
17. Когда П была Постаментом
18. Когда Р была Рапирой
19. Когда С была Стручком
20. Когда Т была Танцовщицей
21. Когда У была Улиткой
22. Когда Ф была Франтом
23. Когда Х была Хлопушкой
24. Когда Ц была Царевной
25. Когда Ч была Черпаком
26. Когда Ш была Шарабаном
27. Когда Щ была Щёткой
28. Когда Ъ был ...
29. Когда Ы была прЫнцессой
30. Когда Ь был ....
31. Когда Э была Эллипсом
32. Когда Ю была Юлой
33. Когда Я была Якорем

Скриншоты меню

Скриншоты








DVDInfo

Общее
Полное имя : E:\Видео\Мульты\Буквальные истории\VIDEO_TS\VTS_01_1.VOB
Формат : MPEG-PS
Размер файла : 81,5 Мбайт
Продолжительность : 1 м. 43 с.
Режим общего битрейта : Переменный
Общий поток : 6635 Кбит/сек
Видео
Идентификатор : 224 (0xE0)
Формат : MPEG Video
Версия формата : Version 2
Профиль формата : Main@Main
Параметр BVOP формата : Да
Параметр матрицы формата : По умолчанию
Параметр GOP формата : M=3, N=12
Структура изображения : Frame
Продолжительность : 1 м. 43 с.
Вид битрейта : Переменный
Битрейт : 6311 Кбит/сек
Максимальный битрейт : 9000 Кбит/сек
Ширина : 720 пикселей
Высота : 576 пикселей
Соотношение сторон : 16:9
Частота кадров : 25,000 кадров/сек
Стандарт вещания : PAL
Цветовое пространство : YUV
Субдискретизация насыщенности : 4:2:0
Битовая глубина : 8 бит
Тип развёртки : Чересстрочная
Порядок развёртки : Верхнее поле первое
Метод сжатия : С потерями
Бит/(Пиксели*Кадры) : 0.609
Временной код первого кадра : 00:00:00:00
Оригинал временного кода : Group of pictures header
GOP, открыто/закрыто : Открыто
GOP, открыто/закрыто на первом кадре : Закрыто
Размер потока : 77,5 Мбайт (95%)
Аудио
Идентификатор : 189 (0xBD)-128 (0x80)
Формат : AC-3
Формат/Информация : Audio Coding 3
Расширение режима : CM (complete main)
Параметр Endianness формата : Big
Режим смешивания : DVD-Video
Продолжительность : 1 м. 43 с.
Вид битрейта : Постоянный
Битрейт : 192 Кбит/сек
Каналы : 2 канала
Расположение каналов : Front: L R
Частота : 48,0 КГц
Частота кадров : 31,250 кадров/сек (1536 spf)
Метод сжатия : С потерями
Размер потока : 2,36 Мбайт (3%)
[cybertorrent.ru].t2522.torrent 
Торрент: Зарегистрирован [ 2018-02-16 14:23 ] · 0DA10EC6F9309E323AA66527C4EC574684A9C2FA

Скачать .torrent

Скачать

21 KB

Статус: проверено
Скачан: 0 раз
Размер: 2,63 GB
Профиль [ЛС]
Показать сообщения:    

Текущее время: 22-Сен 18:25

Часовой пояс: UTC ± 0



Вы не можете начинать темы
Вы не можете отвечать на сообщения
Вы не можете редактировать свои сообщения
Вы не можете удалять свои сообщения
Вы не можете голосовать в опросах
Вы не можете прикреплять файлы к сообщениям
Вы можете скачивать файлы
Torrents24.ru открытый BitTorrent Torrents24.pl открытый BitTorrent CyberTorrent.ru открытый BitTorrent BtList.ru рейтинг BitTorrent трекеров Яндекс.Метрика