Статистика раздачи
Размер:  16,58 GB   |    Зарегистрирован:  8 месяцев 26 дней   |    Скачан:  1 раз

Полного источника не было: 7 месяцев 1 день

Личеров:  1  [  0 KB/s  ]  
 
   
 
 

DR_KTO ®

Пол:
Не указан
Стаж:
8 месяцев 27 дней
Сообщений:
105

Ребята и зверята (65 вып.)
Дата/Год выпуска: 2007-2008
Страна: Россия
Жанр: Детская образовательная передача
Продолжительность: ~00:20:00 х 65
Перевод: Не требуется
Русские субтитры: нет
Ведущие: Викентий Вездеходов, динозавр Аназеба
Телеканал: Карусель http://www.karusel-tv.ru/announce/8581
Описание: Ведущий программы, знаменитый путешественник и друг всех животных, Викентий Вездеходов и его помощник — самый добрый на свете динозавр — Аназеба познакомят вас с удивительным миром существ, которые живут на одной планете с нами — миром животных. Некоторые из них могут жить у нас дома, а кто-то не мыслит жизни без непролазных джунглей или заснеженной тайги. С ними можно дружить, их можно опасаться, они мурлыкают, лают, рычат или пищат, — и все они без исключения удивительны, красивы и очень важны.
Викентий Вездеходов и Аназеба расскажут вам, как можно подружиться с животными и как соблюдать меры безопасности, если кто-то из животных почему-то не хочет с вами дружить.
Сэмпл: http://multi-up.com/1082769
Ссылка на предыдущие и альтернативные раздачи: http://cybertorrent.ru/tracker.php?nm=%D0%E5%E1%FF%F2%E0+%E8+%E7%E2%E5%F0%FF%F2%E0
Релиз:
качество: SATRip
формат: AVI
Видео: 640x480 (1.33:1), 25 fps, XviD build 64 ~1700 kbps avg, 0.22 bit/pixel
Аудио: 48 kHz, MPEG Layer 3, 2 ch, ~128.00 kbps avg

Список выпусков/серий

Аист.avi
Бабочки.avi
Баран.avi
Белка-летяга.avi
Бурундук.avi
Варан.avi
Верблюд.avi
Волк.avi
Воробей.avi
Ворон.avi
Ворона.avi
Геккон.avi
Голуби.avi
Дикобраз.avi
Ёж.avi
Енот.avi
Жаба.avi
Заяц.avi
Золотые рыбки.avi
Игуана.avi
Кобра.avi
Коза.avi
Корова.avi
Кошка.avi
Краб.avi
Крокодил.avi
Кролики.avi
Кузнечик.avi
Лев.avi
Лиса.avi
Лошадь.avi
Лягушка.avi
Макака.avi
Мангуст.avi
Медведь.avi
Норка.avi
Нутрия.avi
Олень.avi
Орёл.avi
Павлин.avi
Пантера (леопард).avi
Паук.avi
Песец.avi
Петух и курица.avi
Питон.avi
Попугай волнистый.avi
Поросёнок.avi
Пума.avi
Скорпион.avi
Снегирь.avi
Собака.avi
Собачки декоративные.avi
Сова.avi Сорока.avi
Страус.avi
Сурок.avi
Тараканы.avi
Уж.avi
Утка-мандаринка.avi
Фазан.avi
Хамелеон.avi
Чайка.avi
Шимпанзе.avi
Щука.avi
Ягуар.avi

MediaInfo

Общее
Полное имя : D:\01 РАЗДАЧИ ШОУ\Ребята и зверята 640х480 1700\Ребята и зверята\Аист.avi
Формат : AVI
Формат/Информация : Audio Video Interleave
Размер файла : 257 Мбайт
Продолжительность : 19 м.
Общий поток : 1841 Кбит/сек
Программа кодирования : Lavf54.63.100
Видео
Идентификатор : 0
Формат : MPEG-4 Visual
Профиль формата : Simple@L3
Параметр BVOP формата : Нет
Параметр QPel формата : Нет
Параметр GMC формата : Без точки перехода
Параметр матрицы формата : Default (H.263)
Идентификатор кодека : XVID
Идентификатор кодека/Подсказка : XviD
Продолжительность : 19 м.
Битрейт : 1700 Кбит/сек
Ширина : 640 пикселей
Высота : 480 пикселей
Соотношение сторон : 4:3
Частота кадров : 25,000 кадров/сек
Цветовое пространство : YUV
Субдискретизация насыщенности : 4:2:0
Битовая глубина : 8 бит
Тип развёртки : Прогрессивная
Метод сжатия : С потерями
Бит/(Пиксели*Кадры) : 0.221
Размер потока : 237 Мбайт (92%)
Библиотека кодирования : XviD 64
Аудио
Идентификатор : 1
Формат : MPEG Audio
Версия формата : Version 1
Профиль формата : Layer 3
Идентификатор кодека : 55
Идентификатор кодека/Подсказка : MP3
Продолжительность : 19 м.
Вид битрейта : Постоянный
Битрейт : 128 Кбит/сек
Каналы : 2 канала
Частота : 48,0 КГц
Метод сжатия : С потерями
Размер потока : 17,9 Мбайт (7%)
Выравнивание : Соединение по промежуткам
Продолжительность промежутка : 24 мс. (0,60 видеокадр)
Время предзагрузки промежутка : 24 мс.

Скриншоты

[cybertorrent.ru].t2524.torrent 
Торрент: Зарегистрирован [ 2018-02-16 14:23 ] · 5CDB8F71FD3071579FE7BBC4199A6DC26D809431

Скачать .torrent

Скачать

86 KB

Статус: проверено
Скачан: 1 раз
Размер: 16,58 GB
Профиль [ЛС]
Показать сообщения:    

Текущее время: 14-Ноя 20:14

Часовой пояс: UTC ± 0



Вы не можете начинать темы
Вы не можете отвечать на сообщения
Вы не можете редактировать свои сообщения
Вы не можете удалять свои сообщения
Вы не можете голосовать в опросах
Вы не можете прикреплять файлы к сообщениям
Вы можете скачивать файлы
Torrents24.ru открытый BitTorrent Torrents24.pl открытый BitTorrent CyberTorrent.ru открытый BitTorrent BtList.ru рейтинг BitTorrent трекеров Яндекс.Метрика