Статистика раздачи
Размер:  2,93 GB   |    Зарегистрирован:  9 месяцев 3 дня   |    Скачан:  0 раз

Полного источника не было: Никогда

 
   
 
 

Zima ®

Пол:
Не указан
Стаж:
9 месяцев 5 дней
Сообщений:
42

Снежная королева
Страна: Россия
Жанр: мультфильм, фэнтези, приключения, семейный
Продолжительность: 01:15:53
Год выпуска: 2012
Режиссёр: Владлен Барбэ, Максим Свешников
Роли озвучивали: Иван Охлобыстин, Нюша, Анна Ардова, Рамиля Искандер, Дмитрий Нагиев, Елизавета Арзамасова, Галина Тюнина, Юрий Стоянов, Людмила Артемьева, Михаил Тихонов
Описание: В стремлении сотворить Новый мир — холодный и практичный, где четкость линий призвана заменить эмоции, а северный ветер должен остудить людские души, Снежная Королева избавляется от всех представителей творческих профессий. Маленькой и смелой Герде, отправившейся в опасное путешествие, чтобы спасти своего брата Кая, предстоит столкнуться с этим холодным миром Снежной Королевы. Преодолевая все сложности и преграды на пути к своей цели, Герда не только обретает семью, но и веру в себя, находит поддержку новых друзей.
Семпл: скачать
Качество: BDRip 720p
Формат: MKV
Видео: H264, 1280x544, 23.976 fps, 4888 Kbps
Аудио: Dolby AC3 48000Hz 6ch 640kbps
Субтитры: отсутствуют
Главы: есть
Авторы рипа: FrIeNdS
BDRip 1080p
Другие раздачи этого мультфильма

Дополнительная информация

Рип найден в интернете, сделан с зарубежного Blu-Ray, поэтому название перерисовано на английский (см. скриншот). Титры в конце тоже на английском.
Но самое главное отличие в том, что тут соотношение сторон отличается от российских 16:9. И площадь кадра значительно больше. См. сравнение скриншотов.

Подробные технические данные

General
Unique ID : 221025751056764619068115957840817062381 (0xA64802E0E4878FC0B6EB75AF764281ED)
Complete name : D:\Mults\HD\The.Snow.Queen.2012.720p.mkv
Format : Matroska
Format version : Version 4 / Version 2
File size : 2.93 GiB
Duration : 1h 15mn
Overall bit rate : 5 524 Kbps
Movie name : The Snow Queen
Encoded date : UTC 2016-01-24 20:58:22
Writing application : mkvmerge v8.7.0 ('All of the above') 64bit
Writing library : libebml v1.3.3 + libmatroska v1.4.4
Video
ID : 1
Format : AVC
Format/Info : Advanced Video Codec
Format profile : High@L4.1
Format settings, CABAC : Yes
Format settings, ReFrames : 12 frames
Codec ID : V_MPEG4/ISO/AVC
Duration : 1h 15mn
Bit rate : 4 888 Kbps
Width : 1 280 pixels
Height : 544 pixels
Display aspect ratio : 2.35:1
Frame rate mode : Constant
Frame rate : 23.976 fps
Color space : YUV
Chroma subsampling : 4:2:0
Bit depth : 8 bits
Scan type : Progressive
Bits/(Pixel*Frame) : 0.293
Stream size : 2.53 GiB (86%)
Writing library : x264 core 140 r2377 1ca7bb9
Encoding settings : cabac=1 / ref=12 / deblock=1:-1:-1 / analyse=0x3:0x113 / me=umh / subme=11 / psy=1 / psy_rd=0.98:0.02 / mixed_ref=1 / me_range=64 / chroma_me=1 / trellis=2 / 8x8dct=1 / cqm=0 / deadzone=6,6 / fast_pskip=0 / chroma_qp_offset=-3 / threads=18 / lookahead_threads=2 / sliced_threads=0 / nr=0 / decimate=0 / interlaced=0 / bluray_compat=0 / constrained_intra=0 / bframes=5 / b_pyramid=2 / b_adapt=2 / b_bias=0 / direct=3 / weightb=1 / open_gop=1 / weightp=2 / keyint=240 / keyint_min=22 / scenecut=40 / intra_refresh=0 / rc_lookahead=240 / rc=2pass / mbtree=1 / bitrate=4888 / ratetol=1.0 / qcomp=0.60 / qpmin=0 / qpmax=69 / qpstep=4 / cplxblur=20.0 / qblur=0.5 / vbv_maxrate=50000 / vbv_bufsize=50000 / nal_hrd=none / filler=0 / ip_ratio=1.40 / aq=2:0.90
Language : English
Default : Yes
Forced : Yes
Color range : Limited
Color primaries : BT.709
Transfer characteristics : BT.709
Matrix coefficients : BT.709
Audio
ID : 2
Format : AC-3
Format/Info : Audio Coding 3
Mode extension : CM (complete main)
Format settings, Endianness : Big
Codec ID : A_AC3
Duration : 1h 15mn
Bit rate mode : Constant
Bit rate : 640 Kbps
Channel(s) : 6 channels
Channel positions : Front: L C R, Side: L R, LFE
Sampling rate : 48.0 KHz
Compression mode : Lossy
Stream size : 347 MiB (12%)
Language : Russian
Default : Yes
Forced : No
Menu
00:00:00.000 : en:Chapter 01
00:06:25.843 : en:Chapter 02
00:12:12.064 : en:Chapter 03
00:17:16.827 : en:Chapter 04
00:24:55.827 : en:Chapter 05
00:33:08.903 : en:Chapter 06
00:40:36.559 : en:Chapter 07
00:45:17.423 : en:Chapter 08
00:50:41.329 : en:Chapter 09
00:55:29.492 : en:Chapter 10
01:00:14.902 : en:Chapter 11
01:08:57.133 : en:Chapter 12

Скриншоты

Название мультфильма перерисовано на английский:

Ещё несколько скриншотов:

Сравнение скриншотов с российским изданием

Скриншоты этой раздачи:

Скриншоты российского Blu-Ray, подогнанные к этому размеру:

Скриншоты оригинального российского Blu-Ray:

Видно, что кадр на российских Blu-Ray заметно урезан по сравнению с этой раздачей. Естественно, то же касается и всех существующих рипов на их основе. Видимо, изначально более широкую картинку подгоняли под 16:9.
[cybertorrent.ru].t2529.torrent 
Торрент: Зарегистрирован [ 2018-02-16 14:23 ] · 8D6FD9857A57484F3C94AC26F10990134819A529

Скачать .torrent

Скачать

15 KB

Статус: проверено
Скачан: 0 раз
Размер: 2,93 GB
Профиль [ЛС]
Показать сообщения:    

Текущее время: 20-Ноя 13:19

Часовой пояс: UTC ± 0



Вы не можете начинать темы
Вы не можете отвечать на сообщения
Вы не можете редактировать свои сообщения
Вы не можете удалять свои сообщения
Вы не можете голосовать в опросах
Вы не можете прикреплять файлы к сообщениям
Вы можете скачивать файлы
Torrents24.ru открытый BitTorrent Torrents24.pl открытый BitTorrent CyberTorrent.ru открытый BitTorrent BtList.ru рейтинг BitTorrent трекеров Яндекс.Метрика