Статистика раздачи
Размер:  1,46 GB   |    Зарегистрирован:  3 месяца 6 дней   |    Скачан:  0 раз
Сидов:  253  [  0 KB/s  ]  
 
   
 
 

lopster ®

Пол:
Не указан
Стаж:
3 месяца 6 дней
Сообщений:
612

Везучий случай
- Жанр: Комедия
Год выпуска: 2017
Продолжительность: 01:32:52-Режиссёр: Роман Самгин-В ролях: Андрей Рожков, Дмитрий Брекоткин, Вячеслав Мясников, Михаил Трухин, Алексей Маклаков, Олеся Железняк, Ольга Медынич, Ольга Дибцева, Валентина Мазунина, Юлия Михалкова-Описание: По сюжету фильма, Валерка с друзьями обнаруживает у себя лотерейный билет, который даже не помнит, кто и как покупал. А билет оказывается выигрышный — 43 миллиона рублей! Целое состояние для скромного Екатеринбурга! Да чего уж там, для целого отдела продавцов — Валерки и его друзей. Выигрыш решили делить на всех, устроили гулянку, настроили планов… но быстро поняли, что не видать им денег, если о них узнают жены. Мужики выкрадывают свои паспорта и сбегают из дома в Москву. А жены следуют за ними по пятам.- / -Качество видео: WEB-DLRip
Формат видео: AVI
Видео: 720x304 (2.35:1), 24.000 fps, XviD build 73, 2052 Kbps
Аудио: 48 kHz, AC3 Dolby Digital, 2 ch, 192 Kbps-Релиз от: MegaPeer-

MediaInfo

General
Complete name : Downloads\Vezuchij.sluchaj.2017.WEB-DLRip.MegaPeer.avi
Format : AVI
Format/Info : Audio Video Interleave
File size : 1.46 GiB
Duration : 1h 32mn
Overall bit rate : 2 251 Kbps
Video #0
ID : 0
Format : MPEG-4 Visual
Format profile : Advanced Simple@L5
Format settings, BVOP : 1
Format settings, QPel : No
Format settings, GMC : No warppoints
Format settings, Matrix : Custom
Codec ID : XVID
Codec ID/Hint : XviD
Duration : 1h 32mn
Bit rate : 2 052 Kbps
Width : 720 pixels
Height : 304 pixels
Display aspect ratio : 2.35:1
Frame rate : 24.000 fps
Color space : YUV
Chroma subsampling : 4:2:0
Bit depth : 8 bits
Scan type : Progressive
Compression mode : Lossy
Bits/(Pixel*Frame) : 0.391
Stream size : 1.33 GiB (91%)
Writing library : XviD 73
Audio #1
ID : 1
Format : AC-3
Format/Info : Audio Coding 3
Mode extension : CM (complete main)
Format settings, Endianness : Big
Codec ID : 2000
Duration : 1h 32mn
Bit rate mode : Constant
Bit rate : 192 Kbps
Channel(s) : 2 channels
Channel positions : Front: L R
Sampling rate : 48.0 KHz
Bit depth : 16 bits
Compression mode : Lossy
Stream size : 128 MiB (9%)
Alignment : Aligned on interleaves
Interleave, duration : 64 ms (1.54 video frames)
Interleave, preload duration : 192 ms
Title : iTunes

Скриншот c названием фильма

Скриншоты

[cybertorrent.ru].t253.torrent 
Торрент: Зарегистрирован [ 2018-02-15 15:34 ] · 0237A835800F04650031D8C574D4587505F3C0D0

Скачать .torrent

Скачать

15 KB

Статус: проверено
Скачан: 0 раз
Размер: 1,46 GB
Профиль [ЛС]
Показать сообщения:    

Текущее время: 21-Май 19:02

Часовой пояс: UTC ± 0



Вы не можете начинать темы
Вы не можете отвечать на сообщения
Вы не можете редактировать свои сообщения
Вы не можете удалять свои сообщения
Вы не можете голосовать в опросах
Вы не можете прикреплять файлы к сообщениям
Вы можете скачивать файлы