Статистика раздачи
Размер:  7,96 GB   |    Зарегистрирован:  9 месяцев 1 день   |    Скачан:  0 раз

Полного источника не было: Никогда

 
   
 
 

Volga ®

Пол:
Не указан
Стаж:
9 месяцев 3 дня
Сообщений:
92

I Международный фестиваль "Золотая магия 21 века" / I Golden Magic 21 century
Дата/Год выпуска: 2016
Страна: Россия
Жанр: Шоу, фокусы
Продолжительность: 01:05:46
Перевод: Не требуется
Русские субтитры: нет
Оригинальная аудиодорожка: русский
Телеканал: Россия HD
Описание: 18 и 19 апреля 2015 года на сцене «КРОКУС СИТИ ХОЛЛ» проходил 1-й Международный Фестиваль «ЗОЛОТАЯ МАГИЯ XXI ВЕКА» («Golden Magic 21 century»). Впервые лучшие мастера магии собрались в Москве, чтобы продемонстрировать свои фантастические трюки. «Golden Magic 21 century» — это новый уровень, новый подход, новое видение, которые изменят отношение к иллюзии в нашей стране, где фокусники выступают в основном в цирках и на корпоративах. В Международном Фестивале «Golden Magic 21 century» приняли участие мировые знаменитости и лучшие фокусники со всего света: Marcel Kalisvaart & "Magus Utopia" (нидерланды), Fred Cie Pok (Франция), Сос и Виктория Петросян (Россия), Norbet Ferre (Франция), Timo Marc (Германия), Red Star Seong (Корея), Marco Zoppi (Италия), Huang Wenyu (Китай), Charlye Frye (США).
качество: HDTVRip
формат: MKV
Видео: H.264, 1920x1080, 25.000 fps, 16800 Kbps
Аудио: MPEG2, 2.0 ch, 48000 Hz, 192 Kbps
Чаптеры: есть

MediaInfo

Общее
Уникальный идентификатор : 162243864582475183649051072966335851454 (0x7A0F081E18EE4B48AF50A9144BF6EBBE)
Полное имя : E:\Golden Magic 21 century.mkv
Формат : Matroska
Версия формата : Version 4 / Version 2
Размер файла : 7,96 Гбайт
Продолжительность : 1 ч. 5 м.
Общий поток : 17,3 Мбит/сек
Дата кодирования : UTC 2016-01-08 20:59:20
Программа кодирования : TMPGEnc MPEG Smart Renderer 4 Version 4.2.4.68
Библиотека кодирования : TMPGEnc MPEG Smart Renderer 4 Version 4.2.4.68
Видео
Идентификатор : 1
Формат : AVC
Формат/Информация : Advanced Video Codec
Профиль формата : Main@L4
Параметр CABAC формата : Да
Параметр ReFrames формата : 3 кадра
Параметр GOP формата : M=4, N=32
Идентификатор кодека : V_MPEG4/ISO/AVC
Продолжительность : 1 ч. 5 м.
Битрейт : 16,8 Мбит/сек
Ширина : 1920 пикселей
Высота : 1080 пикселей
Соотношение сторон : 16:9
Режим частоты кадров : Постоянный
Частота кадров : 25,000 кадров/сек
Стандарт вещания : Component
Цветовое пространство : YUV
Субдискретизация насыщенности : 4:2:0
Битовая глубина : 8 бит
Тип развёртки : Чересстрочная
Порядок развёртки : Верхнее поле первое
Бит/(Пиксели*Кадры) : 0.324
Размер потока : 7,71 Гбайт (97%)
Default : Да
Forced : Нет
Цветовой диапазон : Limited
Основные цвета : BT.709
Характеристики трансфера : BT.709
Коэффициенты матрицы : BT.709
Аудио
Идентификатор : 2
Формат : MPEG Audio
Версия формата : Version 1
Профиль формата : Layer 2
Идентификатор кодека : A_MPEG/L2
Идентификатор кодека/Подсказка : MP2
Продолжительность : 1 ч. 5 м.
Вид битрейта : Постоянный
Битрейт : 192 Кбит/сек
Каналы : 2 канала
Частота : 48,0 КГц
Метод сжатия : С потерями
Размер потока : 90,3 Мбайт (1%)
Язык : Russian
Default : Да
Forced : Нет
Меню

Скриншоты


[cybertorrent.ru].t2530.torrent 
Торрент: Зарегистрирован [ 2018-02-16 14:23 ] · 97E57A9442F9C3DC6168731D74CD0B1F02472514

Скачать .torrent

Скачать

40 KB

Статус: проверено
Скачан: 0 раз
Размер: 7,96 GB
Профиль [ЛС]
Показать сообщения:    

Текущее время: 18-Ноя 11:53

Часовой пояс: UTC ± 0



Вы не можете начинать темы
Вы не можете отвечать на сообщения
Вы не можете редактировать свои сообщения
Вы не можете удалять свои сообщения
Вы не можете голосовать в опросах
Вы не можете прикреплять файлы к сообщениям
Вы можете скачивать файлы
Torrents24.ru открытый BitTorrent Torrents24.pl открытый BitTorrent CyberTorrent.ru открытый BitTorrent BtList.ru рейтинг BitTorrent трекеров Яндекс.Метрика