Статистика раздачи
Размер:  743 MB   |    Зарегистрирован:  5 месяцев 4 дня   |    Скачан:  0 раз

Полного источника не было: Никогда

 
   
 
 

nic ®

Пол:
Не указан
Стаж:
5 месяцев 6 дней
Сообщений:
59

Савва. Сердце воина
Страна: Россия
Жанр: Мультипликация, сказка, приключения
Продолжительность: 01:27:09
Год выпуска: 2015
Субтитры: отсутствуют
Режиссёр: Максим Фадеев
Роли озвучивали: Константин Хабенский, Фёдор Бондарчук, Армен Джигарханян, Григорий Лепс, Сергей Шнуров, Михаил Галустян, Глюкоза, Сергей Гармаш, Лолита Милявская, Николай Басков, и др.
Описание (с КиноПоиска): История о мальчике Савве десяти лет, который живёт в маленькой лесной деревне. Когда-то деревню от врагов защищали благородные белые волки. Но однажды волки исчезли и на деревню напала банда свирепых Гиен. Савве удаётся сбежать в лес, где он знакомится с Ангой — последним белым волком.
Анга рассказывает Савве о могущественном Волшебнике, который живёт на горе и может помочь Савве освободить его деревню. Но, к сожалению, эту гору окружает огромное войско, под предводительством злобной Мамы ЖоЗи — трёхголовой королевы обезьян.
Справляясь с непреодолимыми трудностями, Савва и Анга начинают свой длинный и опасный путь на гору. По пути к ним присоединяются и другие путешественники: Пусик — странное розовое пушистое существо; Фафл — самоуверенный тип, похожий на француза, который в действительности является заколдованным полубароном и вынужден носить на плече короля комаров; принцессу болотного племени Нанти и других. У всех есть свои личные причины, чтобы идти к Волшебнику. По пути к своей цели, друзьям предстоит преодолеть множество препятствий, узнать страшные тайны и вступить в битву с войском обезьян и коварной Мамой ЖоЗи.

Качество: HDRip
Формат: AVI
Видео: XviD 73 MPEG-4, 720x304 (2.35:1) 24.000 fps, ~1054 kbps avg, 0.201 bit/pixel
Аудио: MP-3 Joint stereo, CBR 128 kbps 2 ch, 48.0 KHz

MediaInfo

Общее
Полное имя : P:\Савва_Сердце_воина_2015_HDRip_[rutracker.org].avi
Формат : AVI
Формат/Информация : Audio Video Interleave
Размер файла : 743 Мбайт
Продолжительность : 1 ч. 27 м.
Общий поток : 1191 Кбит/сек
Программа кодирования : VirtualDubModRus 1.5.10.2 (build 2542/release)
Библиотека кодирования : VirtualDubMod build 2542/release
Видео
Идентификатор : 0
Формат : MPEG-4 Visual
Профиль формата : Advanced Simple@L5
Параметр BVOP формата : 2
Параметр QPel формата : Нет
Параметр GMC формата : Без точки перехода
Параметр матрицы формата : Default (MPEG)
Идентификатор кодека : DX50
Идентификатор кодека/Подсказка : DivX 5
Продолжительность : 1 ч. 27 м.
Битрейт : 1054 Кбит/сек
Ширина : 720 пикселей
Высота : 304 пикселя
Соотношение сторон : 2,35:1
Частота кадров : 24,000 кадра/сек
Цветовое пространство : YUV
Субдискретизация насыщенности : 4:2:0
Битовая глубина : 8 бит
Тип развёртки : Прогрессивная
Метод сжатия : С потерями
Бит/(Пиксели*Кадры) : 0.201
Размер потока : 657 Мбайт (88%)
Библиотека кодирования : XviD 73
Аудио
Идентификатор : 1
Формат : MPEG Audio
Версия формата : Version 1
Профиль формата : Layer 3
Режим : Joint stereo
Расширение режима : MS Stereo
Идентификатор кодека : 55
Идентификатор кодека/Подсказка : MP3
Продолжительность : 1 ч. 27 м.
Вид битрейта : Постоянный
Битрейт : 128 Кбит/сек
Каналы : 2 канала
Частота : 48,0 КГц
Метод сжатия : С потерями
Размер потока : 79,8 Мбайт (11%)
Выравнивание : Соединение по промежуткам
Продолжительность промежутка : 42 мс. (1,00 видеокадр)
Время предзагрузки промежутка : 504 мс.

Скриншоты


Время раздачи - по возможности.
[cybertorrent.ru].t2533.torrent 
Торрент: Зарегистрирован [ 2018-02-16 14:23 ] · 151D17E551003F5A0A78380660773438BC7357BA

Скачать .torrent

Скачать

15 KB

Статус: проверено
Скачан: 0 раз
Размер: 743 MB
Профиль [ЛС]
Показать сообщения:    

Текущее время: 21-Июл 13:44

Часовой пояс: UTC ± 0



Вы не можете начинать темы
Вы не можете отвечать на сообщения
Вы не можете редактировать свои сообщения
Вы не можете удалять свои сообщения
Вы не можете голосовать в опросах
Вы не можете прикреплять файлы к сообщениям
Вы можете скачивать файлы