Статистика раздачи
Размер:  1,44 GB   |    Зарегистрирован:  3 месяца 6 дней   |    Скачан:  0 раз

Полного источника не было: Никогда

Личеров:  1  [  0 KB/s  ]  
 
   
 
 

lopster ®

Пол:
Не указан
Стаж:
3 месяца 6 дней
Сообщений:
612

Софи
Жанр: семейный
Год выпуска: 2007
Продолжительность: 3 х 00:28:00
Режиссёр: Илья Литвак
В ролях: Валерий Золотухин, Александр Пороховщиков, Стас Журжин, Олег Масленников, Мария Агейкина, Ксения Агейкина, Гриша Куценко, Ангелина Савченко, Ксения Охлобыстина, Раиса Рязанова, Сергей Пинегин, Мария Юрьева, Ксения Пасаженникова, Алексей Савченко
Описание: Помните старую сказку про девочку, которая плакала, потому что не могла дать нищей старушке 3 рубля, а дала только рублик? Это и есть Рождественская история. Жанр Рождественских сказок и историй в кино несправедливо забыт российскими режиссерами. Да и в целом российское детское кино и мультипликация переживают не лучшие времена. Хороший детский фильм нынче — большая редкость. Тем приятнее видеть на экране настоящие рождественские сказки – добрые, чистые, проникновенные и интересные! Цикл состоит из двух небольших новелл, которые в форме притчи, поучительной истории, на наглядном примере объясняют детишкам ценность основных христианских заветов: любви к ближнему, заботы о родных, самопожертвования и милосердия. «Счастливая звезда». История княжеского внучка Коли, узнавшего от деревенских детей, что такое Вифлеемская звезда и почему она украшает елку, но под самый праздник слегшего с двусторонним воспалением легких. Этим закончилась его попытка увидеть Звезду в подзорную трубу на балконе. Убитый горем князь в исполнении Александра Пороховщикова отмаливает ребенка. Незатейливая история сопровождается пением теми самыми деревенскими детьми красивых праздничных колядок. «Рождественская девочка». История про «Рождественскую девочку» несколько психологичней. После смерти папы жизнь маленькой девочки Жени стала очень тяжелой. Незадолго до Рождества она отправляется в редакцию газеты, где хочет дать объявление о продаже своей любимой и единственной куклы, чтобы купить тяжело больной маме лекарства и теплые вещи. Благодаря ее мужественному поступку к ним приходит неожиданная помощь - добрый главный редактор – о, поистине чудо! – наведывается в гости к обедневшему семейству и приносит в дом радость Праздника.
Сэмпл: http://multi-up.com/1149170
Качество видео: DVDRip-AVC
Формат видео: MKV
Видео: AVC, 716x432 (16:9), 25.000 fps, 2 500 Kbps (0.323 bit/pixel)
Аудио: AC-3, 48.0 KHz, 5 ch, 448 Kbps, CBR (Russian)

MediaInfo

General
Unique ID : 221065436267487570222874878340032146677 (0xA64FA782AC3AAB129D72C4761F44ACF5)
Complete name : C:\Users\User\Downloads\Рождественские истории\1. Рождественская девочка.mkv
Format : Matroska
Format version : Version 2
File size : 286 MiB
Duration : 13mn 34s
Overall bit rate : 2 942 Kbps
Encoded date : UTC 2016-12-28 11:03:11
Writing application : mkvmerge v7.8.0 ('River Man') 32bit built on Apr 3 2015 12:11:22
Writing library : libebml v1.3.1 + libmatroska v1.4.2
Video
ID : 1
Format : AVC
Format/Info : Advanced Video Codec
Format profile : High@L4.1
Format settings, CABAC : Yes
Format settings, ReFrames : 12 frames
Codec ID : V_MPEG4/ISO/AVC
Duration : 13mn 34s
Bit rate : 2 500 Kbps
Width : 716 pixels
Height : 432 pixels
Display aspect ratio : 16:9
Original display aspect ratio : 16:9
Frame rate mode : Constant
Frame rate : 25.000 fps
Color space : YUV
Chroma subsampling : 4:2:0
Bit depth : 8 bits
Scan type : Progressive
Bits/(Pixel*Frame) : 0.323
Stream size : 237 MiB (83%)
Writing library : x264 core 146 r2538 121396c
Encoding settings : cabac=1 / ref=12 / deblock=1:-2:-2 / analyse=0x3:0x133 / me=umh / subme=10 / psy=1 / psy_rd=1.05:0.10 / mixed_ref=1 / me_range=32 / chroma_me=1 / trellis=2 / 8x8dct=1 / cqm=0 / deadzone=21,11 / fast_pskip=0 / chroma_qp_offset=-3 / threads=3 / lookahead_threads=1 / sliced_threads=0 / nr=0 / decimate=0 / interlaced=0 / bluray_compat=0 / constrained_intra=0 / bframes=16 / b_pyramid=2 / b_adapt=2 / b_bias=0 / direct=3 / weightb=1 / open_gop=0 / weightp=2 / keyint=250 / keyint_min=25 / scenecut=40 / intra_refresh=0 / rc=2pass / mbtree=0 / bitrate=2500 / ratetol=1.0 / qcomp=0.63 / qpmin=0 / qpmax=69 / qpstep=4 / cplxblur=20.0 / qblur=0.5 / ip_ratio=1.25 / pb_ratio=1.30 / aq=1:1.00
Language : Russian
Default : Yes
Forced : No
Color primaries : BT.601 PAL
Transfer characteristics : BT.470 System B, BT.470 System G
Matrix coefficients : BT.601
Audio
ID : 2
Format : AC-3
Format/Info : Audio Coding 3
Mode extension : CM (complete main)
Format settings, Endianness : Big
Codec ID : A_AC3
Duration : 13mn 34s
Bit rate mode : Constant
Bit rate : 448 Kbps
Channel(s) : 5 channels
Channel positions : Front: L C R, Side: L R
Sampling rate : 48.0 KHz
Bit depth : 16 bits
Compression mode : Lossy
Stream size : 43.5 MiB (15%)
Language : Russian
Default : Yes
Forced : No-General
Unique ID : 170687683053621617351537559857599962738 (0x806940829EBFC54F9587778A0C7D5E72)
Complete name : C:\Users\User\Downloads\Софи\2. Счастливая звезда.mkv
Format : Matroska
Format version : Version 2
File size : 263 MiB
Duration : 12mn 30s
Overall bit rate : 2 946 Kbps
Encoded date : UTC 2016-12-28 08:57:26
Writing application : mkvmerge v7.8.0 ('River Man') 32bit built on Apr 3 2015 12:11:22
Writing library : libebml v1.3.1 + libmatroska v1.4.2
Video
ID : 1
Format : AVC
Format/Info : Advanced Video Codec
Format profile : High@L4.1
Format settings, CABAC : Yes
Format settings, ReFrames : 12 frames
Codec ID : V_MPEG4/ISO/AVC
Duration : 12mn 30s
Bit rate : 2 500 Kbps
Width : 716 pixels
Height : 432 pixels
Display aspect ratio : 16:9
Original display aspect ratio : 16:9
Frame rate mode : Constant
Frame rate : 25.000 fps
Color space : YUV
Chroma subsampling : 4:2:0
Bit depth : 8 bits
Scan type : Progressive
Bits/(Pixel*Frame) : 0.323
Stream size : 218 MiB (83%)
Writing library : x264 core 146 r2538 121396c
Encoding settings : cabac=1 / ref=12 / deblock=1:-2:-2 / analyse=0x3:0x133 / me=umh / subme=10 / psy=1 / psy_rd=1.05:0.10 / mixed_ref=1 / me_range=32 / chroma_me=1 / trellis=2 / 8x8dct=1 / cqm=0 / deadzone=21,11 / fast_pskip=0 / chroma_qp_offset=-3 / threads=3 / lookahead_threads=1 / sliced_threads=0 / nr=0 / decimate=0 / interlaced=0 / bluray_compat=0 / constrained_intra=0 / bframes=16 / b_pyramid=2 / b_adapt=2 / b_bias=0 / direct=3 / weightb=1 / open_gop=0 / weightp=2 / keyint=250 / keyint_min=25 / scenecut=40 / intra_refresh=0 / rc=2pass / mbtree=0 / bitrate=2500 / ratetol=1.0 / qcomp=0.63 / qpmin=0 / qpmax=69 / qpstep=4 / cplxblur=20.0 / qblur=0.5 / ip_ratio=1.25 / pb_ratio=1.30 / aq=1:1.00
Language : Russian
Default : Yes
Forced : No
Color primaries : BT.601 PAL
Transfer characteristics : BT.470 System B, BT.470 System G
Matrix coefficients : BT.601
Audio
ID : 2
Format : AC-3
Format/Info : Audio Coding 3
Mode extension : CM (complete main)
Format settings, Endianness : Big
Codec ID : A_AC3
Duration : 12mn 30s
Bit rate mode : Constant
Bit rate : 448 Kbps
Channel(s) : 5 channels
Channel positions : Front: L C R, Side: L R
Sampling rate : 48.0 KHz
Bit depth : 16 bits
Compression mode : Lossy
Stream size : 40.1 MiB (15%)
Language : Russian
Default : Yes
Forced : No-General
Unique ID : 218419905224268049400844411683435014096 (0xA45224C274C04B709F98F3B2B83567D0)
Complete name : C:\Users\User\Downloads\Софи\3. Софи.mkv
Format : Matroska
Format version : Version 2
File size : 926 MiB
Duration : 43mn 53s
Overall bit rate : 2 948 Kbps
Encoded date : UTC 2016-12-30 16:52:45
Writing application : mkvmerge v7.8.0 ('River Man') 32bit built on Apr 3 2015 12:11:22
Writing library : libebml v1.3.1 + libmatroska v1.4.2
Video
ID : 1
Format : AVC
Format/Info : Advanced Video Codec
Format profile : High@L4.1
Format settings, CABAC : Yes
Format settings, ReFrames : 12 frames
Codec ID : V_MPEG4/ISO/AVC
Duration : 43mn 53s
Bit rate : 2 500 Kbps
Width : 716 pixels
Height : 432 pixels
Display aspect ratio : 16:9
Original display aspect ratio : 16:9
Frame rate mode : Constant
Frame rate : 25.000 fps
Color space : YUV
Chroma subsampling : 4:2:0
Bit depth : 8 bits
Scan type : Progressive
Bits/(Pixel*Frame) : 0.323
Stream size : 767 MiB (83%)
Writing library : x264 core 146 r2538 121396c
Encoding settings : cabac=1 / ref=12 / deblock=1:-2:-2 / analyse=0x3:0x133 / me=umh / subme=10 / psy=1 / psy_rd=1.05:0.10 / mixed_ref=1 / me_range=32 / chroma_me=1 / trellis=2 / 8x8dct=1 / cqm=0 / deadzone=21,11 / fast_pskip=0 / chroma_qp_offset=-3 / threads=3 / lookahead_threads=1 / sliced_threads=0 / nr=0 / decimate=0 / interlaced=0 / bluray_compat=0 / constrained_intra=0 / bframes=16 / b_pyramid=2 / b_adapt=2 / b_bias=0 / direct=3 / weightb=1 / open_gop=0 / weightp=2 / keyint=250 / keyint_min=25 / scenecut=40 / intra_refresh=0 / rc=2pass / mbtree=0 / bitrate=2500 / ratetol=1.0 / qcomp=0.63 / qpmin=0 / qpmax=69 / qpstep=4 / cplxblur=20.0 / qblur=0.5 / ip_ratio=1.25 / pb_ratio=1.30 / aq=1:1.00
Language : Russian
Default : Yes
Forced : No
Color primaries : BT.601 PAL
Transfer characteristics : BT.470 System B, BT.470 System G
Matrix coefficients : BT.601
Audio
ID : 2
Format : AC-3
Format/Info : Audio Coding 3
Mode extension : CM (complete main)
Format settings, Endianness : Big
Codec ID : A_AC3
Duration : 43mn 53s
Bit rate mode : Constant
Bit rate : 448 Kbps
Channel(s) : 6 channels
Channel positions : Front: L C R, Side: L R, LFE
Sampling rate : 48.0 KHz
Bit depth : 16 bits
Compression mode : Lossy
Stream size : 141 MiB (15%)
Language : Russian
Default : Yes
Forced : No

Скриншоты

[cybertorrent.ru].t254.torrent 
Торрент: Зарегистрирован [ 2018-02-15 15:34 ] · 42DE49EB91F338BA3C58286ADF3B13C6A5FC0288

Скачать .torrent

Скачать

15 KB

Статус: проверено
Скачан: 0 раз
Размер: 1,44 GB
Профиль [ЛС]
Показать сообщения:    

Текущее время: 22-Май 00:06

Часовой пояс: UTC ± 0



Вы не можете начинать темы
Вы не можете отвечать на сообщения
Вы не можете редактировать свои сообщения
Вы не можете удалять свои сообщения
Вы не можете голосовать в опросах
Вы не можете прикреплять файлы к сообщениям
Вы можете скачивать файлы