Статистика раздачи
Размер:  3,73 GB   |    Зарегистрирован:  7 месяцев 5 дней   |    Скачан:  0 раз

Полного источника не было: Никогда

 
   
 
 

Alino4ka ®

Пол:
Не указан
Стаж:
7 месяцев 6 дней
Сообщений:
137

Утиные Истории / Duck Tales- Страна: США
Жанр: семейный, приключения, мультфильм, комедия
Продолжительность: 100 серий, ~22 мин.
Год выпуска: 1987-1990
Перевод: Профессиональный (дублированный)
Режиссёр: Девид Блок / David Block-Описание: Утиные истории» — телевизионный мультсериал, созданный компанией Уолта Диснея. В нём рассказывается о приключениях уток из комиксов и историй знаменитого Карла Баркса. Это был самый успешный мультсериал компании Walt Disney и до сих пор является лидером среди всех сериалов этой компании. Было задумано сделать качественный мультсериал, поэтому в создание "Утиных историй" были вложены огромные деньги, не смотря на то, что создание такого проекта было довольно рискованным делом. Главными героями мультсериала являются переработанные классические диснеевские персонажи: Скрудж Макдак (Scrooge McDuck) и его племянники — Билли (Хьюи), Вилли (Дьюи) и Дилли (Луи). Данный сериал был вторым в своём роде (первым мультсериалом был «Приключения мишек Гамми») и впоследствии открыл дорогу другим сериалам Диснея. Позже был также снят другой сериал в той же вселенной — «Чёрный Плащ» и "Кряк-бряк". Данный мультсериал является обладателем 3-х премий Эмми, а также вошёл в 2009 году в TOP100 лучших мультсериалов мира и занял 18 позицию (1 среди сериалов Дисней) по версии IGN, также его главный персонаж Скрудж Макдак стал почётным вымышленным гражданином Шотландии в 2007 году, а в 2008 стал самым богатым вымышленным персонажем в мире (в 2010 стал вторым, уступив дядюшке Сэму).-Релиз от: hukin07-Доп. информацияЗапись с канала 1999г.-Качество: VHSRip
Формат: MPEG
Видео: MPEG2 Video 720x576 (4:3) 7 940 Kbps 25 fps
Аудио: AC-3 48000Hz stereo 256Kbps- -

Подробные технические данные

General
Complete name : E:\Раздачи\Утиные истории_VHSRip by hukin07\DuckTales S1 E38_VHSRip by hukin07.mpg
Format : MPEG-PS
File size : 1.25 GiB
Duration : 21mn 24s
Overall bit rate mode : Variable
Overall bit rate : 8 362 Kbps
Writing library : encoded by TMPGEnc MPEG Editor 2.0 Version. 2.2.8.177
Video
ID : 224 (0xE0)
Format : MPEG Video
Format version : Version 2
Format profile : Main@Main
Format settings, BVOP : Yes
Format settings, Matrix : Custom
Format settings, GOP : Variable
Format settings, picture st : Frame
Duration : 21mn 24s
Bit rate mode : Variable
Bit rate : 7 940 Kbps
Maximum bit rate : 8 300 Kbps
Width : 720 pixels
Height : 576 pixels
Display aspect ratio : 4:3
Frame rate : 25.000 fps
Standard : PAL
Color space : YUV
Chroma subsampling : 4:2:0
Bit depth : 8 bits
Scan type : Interlaced
Scan order : Top Field First
Compression mode : Lossy
Bits/(Pixel*Frame) : 0.766
Time code of first frame : 00:00:00:00
Time code source : Group of pictures header
Stream size : 1.19 GiB (95%)
Writing library : TMPGEnc MPEG Editor 2.2.8.177
Matrix coefficients : BT.601
Audio
ID : 189 (0xBD)-128 (0x80)
Format : AC-3
Format/Info : Audio Coding 3
Mode extension : CM (complete main)
Format settings, Endianness : Big
Muxing mode : DVD-Video
Duration : 21mn 24s
Bit rate mode : Constant
Bit rate : 256 Kbps
Channel(s) : 2 channels
Channel positions : Front: L R
Sampling rate : 48.0 KHz
Frame rate : 31.250 fps (1536 spf)
Compression mode : Lossy
Stream size : 39.2 MiB (3%)

Список серии

024. Проклятие замка МакДак
038. Утки-аквалангисты
045. За богатством в страну гномов

Скриншоты

[cybertorrent.ru].t2546.torrent 
Торрент: Зарегистрирован [ 2018-02-16 14:23 ] · 7FC6016DCD4484913BC84F837D229A72748D777B

Скачать .torrent

Скачать

19 KB

Статус: проверено
Скачан: 0 раз
Размер: 3,73 GB
Профиль [ЛС]
Показать сообщения:    

Текущее время: 21-Сен 17:59

Часовой пояс: UTC ± 0



Вы не можете начинать темы
Вы не можете отвечать на сообщения
Вы не можете редактировать свои сообщения
Вы не можете удалять свои сообщения
Вы не можете голосовать в опросах
Вы не можете прикреплять файлы к сообщениям
Вы можете скачивать файлы
Torrents24.ru открытый BitTorrent Torrents24.pl открытый BitTorrent CyberTorrent.ru открытый BitTorrent BtList.ru рейтинг BitTorrent трекеров Яндекс.Метрика