Статистика раздачи
Размер:  1,45 GB   |    Зарегистрирован:  3 месяца 12 дней   |    Скачан:  0 раз

Полного источника не было: Никогда

 
   
 
 

lopster ®

Пол:
Не указан
Стаж:
3 месяца 12 дней
Сообщений:
612

Защитники«Отряд советских супергероев»- Жанр: фантастика, фэнтези, боевик, приключения
Год выпуска: 2017
Продолжительность: 01:28:57
Режиссер: Сарик Андреасян
В ролях: Антон Пампушный (Арсус), Санжар Мади (Хан), Себастьян Сисак (Лер), Алина Ланина (Ксения), Станислав Ширин (Август Куратов), Валерия Шкирандо (Елена Латина), Вячеслав Разбегаев (генерал-майор Николай Долгов), Александр Семенов (пилот), Владимир Бутенко (боец ФСО), Мила Максимова (Варвара Рогачёва), Игорь Маслов (министр обороны РФ), Дмитрий Савьяненко (докладчик)
Описание: Во времена Холодной войны секретная организация «Патриот» создала отряд супергероев, в который вошли участники из различных советских республик. Долгие годы героям приходилось скрывать свою сущность, однако в тяжелые для страны времена они вновь берутся за дело.- -Качество: BDRip-AVC (исходник - Blu-ray|DEFENDERS_HDCLUB)
Формат видео: MKV
Видео: x264, 984x414 (2.40:1) 24 fps, ~1846 kbps, 0.189 bit/pixel
Аудио: 48 kHz, AC3 Dolby Digital, 5.1 (Front: L C R, Side: L R, LFE) ch, ~448 kbps-

MediaInfo | x264 log

Format : Matroska
Format version : Version 4 / Version 2
File size : 1.45 GiB
Duration : 1h 28 min
Overall bit rate : 2 341 kb/s
Movie name : Защитники (2017) :: AFM ::
Encoded date : UTC 2017-04-26 06:20:55
Writing application : mkvmerge v8.3.0 ('Over the Horizon') 32bit
Writing library : libebml v1.3.1 + libmatroska v1.4.2
Video
ID : 1
Format : AVC
Format/Info : Advanced Video Codec
Format profile : High@L4.1
Format settings, CABAC : Yes
Format settings, ReFrames : 10 frames
Codec ID : V_MPEG4/ISO/AVC
Duration : 1h 28 min
Bit rate : 1 846 kb/s
Width : 984 pixels
Height : 414 pixels
Display aspect ratio : 2.40:1
Frame rate mode : Constant
Frame rate : 24.000 FPS
Color space : YUV
Chroma subsampling : 4:2:0
Bit depth : 8 bits
Scan type : Progressive
Bits/(Pixel*Frame) : 0.189
Stream size : 1.15 GiB (79%)
Title : BDRip by AFM
Writing library : x264 core 150 r2773+45 df9a66c 7mod [8-bit@all X86_64]
Encoding settings : cabac=1 / ref=10 / deblock=1:-3:-2 / analyse=0x3:0x113 / me=umh / subme=10 / psy=1 / fade_compensate=0.00 / psy_rd=1.00:0.00 / mixed_ref=1 / me_range=64 / chroma_me=0 / trellis=2 / 8x8dct=1 / cqm=0 / deadzone=21,11 / fast_pskip=0 / chroma_qp_offset=-2 / threads=6 / lookahead_threads=1 / sliced_threads=0 / nr=0 / decimate=1 / interlaced=0 / bluray_compat=0 / constrained_intra=0 / fgo=0 / bframes=13 / b_pyramid=2 / b_adapt=2 / b_bias=0 / direct=1 / weightb=1 / open_gop=0 / weightp=2 / keyint=240 / keyint_min=23 / scenecut=40 / intra_refresh=0 / rc_lookahead=60 / rc=crf / mbtree=0 / crf=18.2000 / qcomp=0.65 / qpmin=0:0:0 / qpmax=69:69:69 / qpstep=4 / vbv_maxrate=50000 / vbv_bufsize=62500 / crf_max=0.0 / nal_hrd=none / filler=0 / ip_ratio=1.35 / pb_ratio=1.25 / aq=4:0.80 / aq-sensitivity=10.00 / aq-factor=1.00:1.00:1.00 / aq2=0 / aq3=0 / zones=121261,128090,q=30
Language : English
Default : Yes
Forced : No
Audio
ID : 2
Format : AC-3
Format/Info : Audio Coding 3
Mode extension : CM (complete main)
Format settings, Endianness : Big
Codec ID : A_AC3
Duration : 1h 28 min
Bit rate mode : Constant
Bit rate : 448 kb/s
Channel(s) : 6 channels
Channel positions : Front: L C R, Side: L R, LFE
Sampling rate : 48.0 kHz
Frame rate : 31.250 FPS (1536 spf)
Compression mode : Lossy
Stream size : 285 MiB (19%)
Title : AC3 5.1 ~448 kbps
Language : Russian
Default : Yes
Forced : No
Menu
00:00:00.000 : ru:Chapter 1
00:00:52.208 : ru:Chapter 2
00:10:50.416 : ru:Chapter 3
00:21:24.375 : ru:Chapter 4
00:33:35.750 : ru:Chapter 5
00:44:08.208 : ru:Chapter 6
00:55:49.083 : ru:Chapter 7
01:06:44.416 : ru:Chapter 8
01:17:46.833 : ru:Chapter 9

x264

x264 [info]: frame I:1046 Avg QP:18.06 size: 53418
x264 [info]: frame P:28785 Avg QP:19.65 size: 19594
x264 [info]: frame B:98259 Avg QP:21.79 size: 6529
x264 [info]: consecutive B-frames: 2.6% 2.9% 6.5% 27.3% 20.2% 27.3% 6.7% 2.7% 1.6% 0.7% 0.5% 0.3% 0.5% 0.4%
x264 [info]: mb I I16..4: 4.9% 71.7% 23.3%
x264 [info]: mb P I16..4: 1.8% 11.5% 2.3% P16..4: 36.8% 24.9% 13.7% 0.0% 0.0% skip: 8.9%
x264 [info]: mb B I16..4: 0.2% 1.2% 0.4% B16..8: 34.4% 9.9% 3.0% direct: 6.7% skip:44.3% L0:39.5% L1:42.5% BI:18.0%
x264 [info]: 8x8 transform intra:72.2% inter:63.6%
x264 [info]: coded y,uvDC,uvAC intra: 79.9% 78.5% 51.3% inter: 22.8% 20.3% 4.2%
x264 [info]: i16 v,h,dc,p: 29% 24% 10% 38%
x264 [info]: i8 v,h,dc,ddl,ddr,vr,hd,vl,hu: 11% 14% 8% 8% 12% 11% 13% 11% 14%
x264 [info]: i4 v,h,dc,ddl,ddr,vr,hd,vl,hu: 10% 12% 4% 9% 14% 13% 14% 11% 14%
x264 [info]: i8c dc,h,v,p: 39% 27% 18% 16%
x264 [info]: Weighted P-Frames: Y:97.4% UV:4.1%
x264 [info]: ref P L0: 50.7% 14.5% 15.0% 5.3% 4.4% 3.1% 2.7% 1.4% 1.4% 1.3% 0.1% 0.0%
x264 [info]: ref B L0: 76.2% 10.4% 5.3% 2.5% 2.1% 1.5% 1.2% 0.6% 0.3%
x264 [info]: ref B L1: 94.6% 5.4%
x264 [info]: kb/s:1890.82

Скриншоты

с названием

Торрент перезалит - замена на BDRip
[cybertorrent.ru].t255.torrent 
Торрент: Зарегистрирован [ 2018-02-15 15:34 ] · 06062AA8120F3A6829E4AD5B8265ED08D3015BFD

Скачать .torrent

Скачать

15 KB

Статус: проверено
Скачан: 0 раз
Размер: 1,45 GB
Профиль [ЛС]
Показать сообщения:    

Текущее время: 28-Май 08:02

Часовой пояс: UTC ± 0



Вы не можете начинать темы
Вы не можете отвечать на сообщения
Вы не можете редактировать свои сообщения
Вы не можете удалять свои сообщения
Вы не можете голосовать в опросах
Вы не можете прикреплять файлы к сообщениям
Вы можете скачивать файлы