Статистика раздачи
Размер:  3,6 GB   |    Зарегистрирован:  6 месяцев 28 дней   |    Скачан:  0 раз

Полного источника не было: Никогда

   
 

Гость ®

Пол:
Не указан

Сирена / Siren
<Их станет больше!>
- Год выпуска: 2019
Страна: США
Жанр: Фэнтези, драма
Продолжительность: 00:42:16-Перевод: Профессиональный (многоголосый закадровый) - Lostfilm-Режиссёр: Ник Копус, Джей Карас, Скотт Чарльз Стюарт-В ролях: Элайн Пауэлл, Фола Эванс-Экинбола, Сибонгиле Мламбо, Йен Вердён, Рина Оуэн, Рон Юань, Тэмми Гиллис, Кертис Льюм, Чад Рук, Энтони Харрисон-Описание: По легенде возле Бристольской бухты когда-то жили русалки. Однажды здесь появляется таинственная зеленоглазая девушка. Кому-то встреча с ней принесёт смерть, а для кого-то она приоткроет старые тайны безобидного, на первый взгляд, провинциального города.
Сэмпл: http://multi-up.com/1222470
Качество: WEB-DLRip
Формат: AVI
Видео: 720x400 (16:9), 23.976 fps, XviD, 1666 Kbps, 0.24 bit/pixel
Аудио: MP3, 48 kHz, 2 ch, 192 kbps - Lostfilm
Субтитры: Отсутствуют-Реклама: Присутствует заставка и логотип LostFilm.-
-
Предыдущие и альтернативные раздачи-

Список серий

01. Прибытие / The Arrival
02. Волк на пороге / The Wolf at the Door
03. Естественный порядок / Natural Order
04. Масло и вода / Oil & Water
05. Первобытные инстинкты / Primal Instincts
06. Сигнал бедствия / Distress Call
07. Западня / Entrapment
08. Инструмент воздействия / Leverage

MediaInfo

General
Complete name : Downloads\Siren.S02.Lostfilm\Siren.S02E01.rus.LostFilm.avi
Format : AVI
Format/Info : Audio Video Interleave
File size : 564 MiB
Duration : 42mn 16s
Overall bit rate mode : Variable
Overall bit rate : 1 865 Kbps
Writing application : Nandub v1.0rc2
Writing library : Nandub build 1853/release
Video #0
ID : 0
Format : MPEG-4 Visual
Format profile : Advanced Simple@L5
Format settings, BVOP : No
Format settings, QPel : No
Format settings, GMC : No warppoints
Format settings, Matrix : Default (MPEG)
Codec ID : XVID
Codec ID/Hint : XviD
Duration : 42mn 16s
Bit rate : 1 666 Kbps
Width : 720 pixels
Height : 400 pixels
Display aspect ratio : 16:9
Frame rate : 23.976 fps
Color space : YUV
Chroma subsampling : 4:2:0
Bit depth : 8 bits
Scan type : Progressive
Compression mode : Lossy
Bits/(Pixel*Frame) : 0.241
Stream size : 504 MiB (89%)
Writing library : XviD 1.2.1 (UTC 2008-12-04)
Audio #1
ID : 1
Format : MPEG Audio
Format version : Version 1
Format profile : Layer 3
Mode : Joint stereo
Codec ID : 55
Codec ID/Hint : MP3
Duration : 42mn 16s
Bit rate mode : Variable
Bit rate : 192 Kbps
Channel(s) : 2 channels
Sampling rate : 48.0 KHz
Compression mode : Lossy
Stream size : 56.3 MiB (10%)
Alignment : Aligned on interleaves
Interleave, duration : 24 ms (0.58 video frame)
Interleave, preload duration : 482 ms
Writing library : LAME3.97b
Encoding settings : -m j -V 4 -q 3 -lowpass 18.6 --abr 192

Скриншоты

Внимание! Раздача ведётся путём добавления новых серий&#58;

(1) остановить скачивание,
(2) удалить старый торрент у себя из клиента (старые серии удалять не надо),
(3) скачать новый торрент и запустить его у себя в клиенте вместо старого, при этом указать клиенту путь в старую папку куда и должно происходить скачивание новых серий.
Ваш клиент при этом должен произвести хеширование (проверку) старой папки (если не производит сам - помогите ему сделать это), и будет докачивать только те серии которых у вас ещё нет. Старые серии при этом не удаляются, а продолжают раздаваться!
Eсли вы уже удалили старые серии, то предотвратить повторную закачку старых серий можно, отжав галочку в соответсвующих местах при запуске нового торрента. По возможности, желательно не удалять старые серии как можно дольше чтобы релизёр не столько продолжал раздавать старые серии, а смог сконцентрироваться на новых
.
[cybertorrent.ru].t255.torrent 
Торрент: Зарегистрирован [ 2019-03-18 10:04 ] · 8E71592BA2EA13015BC668B653DF6722386E4ED2

Скачать .torrent

Скачать

19 KB

Статус: проверено
Скачан: 0 раз
Размер: 3,6 GB
terms.php
Показать сообщения:    

Текущее время: 16-Окт 04:44

Часовой пояс: UTC ± 0



Вы не можете начинать темы
Вы не можете отвечать на сообщения
Вы не можете редактировать свои сообщения
Вы не можете удалять свои сообщения
Вы не можете голосовать в опросах
Вы не можете прикреплять файлы к сообщениям
Вы можете скачивать файлы