Статистика раздачи
Размер:  1,46 GB   |    Зарегистрирован:  3 месяца 12 дней   |    Скачан:  0 раз
Сидов:  6  [  0 KB/s  ]   Личеров:  1  [  0 KB/s  ]  
 
   
 
 

lopster ®

Пол:
Не указан
Стаж:
3 месяца 12 дней
Сообщений:
612

Елена Прекрасная- Жанр: Мелодрама
Год выпуска: 2017
Продолжительность: 01:30:02
Режиссёр: Павел Мальков
В ролях: Елена Радевич, Владислав Резник, Наталья Высочанская, Валентин Кузнецов (III), Кира Кауфман, Алексей Федькин
Описание: Елена Соколова (Елена Радевич) – успешная модель и звезда подиума, накануне важного контракта узнает, что ждет ребенка. Девушка оказывается перед выбором: уехать в Париж и стать лицом известной французской фирмы, либо навсегда распрощаться с модельным бизнесом и рожать без мужа.
Проходит семь лет. Елена больше не модель, она работает в салоне красоты, у нее есть замечательная дочка Оля и любящий муж Костя (Валентин Кузнецов), ее бывший поклонник.
Но спокойная семейная жизнь Елены заканчивается после встречи с богатым бизнесменом Андреем (Владислав Резник). Елена уходит от мужа, а брошенный Костя решается на отчаянный и ужасный поступок…
Релиз от:
Сэмпл: http://multi-up.com/1149268
Качество видео: HDTVRip
Формат видео: AVI
Видео: 720х400 (16:9), 25.000 fps, XviD, 2 120 Kbps
Аудио: 48 kHz, AC3 Dolby Digital, 2 ch, 192 Kbps
Релиз от:

MediaInfo

General
Complete name : Downloads\Елена Прекрасная.2017.HDTVRip.by.Nicodem.Files-x.avi
Format : AVI
Format/Info : Audio Video Interleave
File size : 1.46 GiB
Duration : 1h 30mn
Overall bit rate : 2 321 Kbps
Writing application : VirtualDubMod 1.5.10.3 | www.virtualdub-fr.org || (build 2550/release)
Writing library : VirtualDubMod build 2550/release
Video #0
ID : 0
Format : MPEG-4 Visual
Format profile : Advanced Simple@L5
Format settings, BVOP : 1
Format settings, QPel : No
Format settings, GMC : No warppoints
Format settings, Matrix : Custom
Codec ID : XVID
Codec ID/Hint : XviD
Duration : 1h 30mn
Bit rate : 2 120 Kbps
Width : 720 pixels
Height : 400 pixels
Display aspect ratio : 16:9
Frame rate : 25.000 fps
Color space : YUV
Chroma subsampling : 4:2:0
Bit depth : 8 bits
Scan type : Progressive
Compression mode : Lossy
Bits/(Pixel*Frame) : 0.294
Stream size : 1.33 GiB (91%)
Writing library : XviD 1.2.1 (UTC 2008-12-04)
Audio #1
ID : 1
Format : AC-3
Format/Info : Audio Coding 3
Mode extension : CM (complete main)
Format settings, Endianness : Big
Codec ID : 2000
Duration : 1h 30mn
Bit rate mode : Constant
Bit rate : 192 Kbps
Channel(s) : 2 channels
Channel positions : Front: L R
Sampling rate : 48.0 KHz
Bit depth : 16 bits
Compression mode : Lossy
Stream size : 124 MiB (8%)
Alignment : Split accross interleaves
Interleave, duration : 40 ms (1.00 video frame)
Interleave, preload duration : 500 ms

Скриншот c названием фильма

Скриншоты

[cybertorrent.ru].t256.torrent 
Торрент: Зарегистрирован [ 2018-02-15 15:34 ] · 3456DA55766103ADAB395A940EF34E4DE600C56A

Скачать .torrent

Скачать

15 KB

Статус: проверено
Скачан: 0 раз
Размер: 1,46 GB
Профиль [ЛС]
Показать сообщения:    

Текущее время: 28-Май 02:59

Часовой пояс: UTC ± 0



Вы не можете начинать темы
Вы не можете отвечать на сообщения
Вы не можете редактировать свои сообщения
Вы не можете удалять свои сообщения
Вы не можете голосовать в опросах
Вы не можете прикреплять файлы к сообщениям
Вы можете скачивать файлы