Статистика раздачи
Размер:  6,59 GB   |    Зарегистрирован:  9 месяцев   |    Скачан:  0 раз

Полного источника не было: Никогда

 
   
 
 

Volga ®

Пол:
Не указан
Стаж:
9 месяцев 2 дня
Сообщений:
92

Le Plus Grand Cabaret du Monde - 30.01.16
Год выпуска: 2016
Страна: Франция
Жанр: шоу, кабаре, цирк
Продолжительность: 01:27:02
Описание:
Выпуск (от 30.01.16) телепередачи "Le Plus Grand Cabaret du Monde"
(телеканал France 2) в Full HD качестве. Оставлены только выступления артистов. Перевод не требуется.
Выступают:
01. Les étoiles du cirque de Pékin - La casse (Chine)
02. Igor - Magie Bouteilles (Serbie)
03. Messoudi Brothers - Quatuor de force (Royaume-Uni)
04. Rosi Hoccheger - Le cheval dressé (Autriche)
05. Sven & Jan - Duo patineurs sexy (Allemagne)
06. Bernard Bilis
07. Compania Havana - Troupe trampoline & Cadre Russe (Cuba)
08. Kamyleon - Grande illusion "Excalibur" (France)
09. Pagagnini - musiciens burlesques (Espagne)
10. Jlang Yaping - Magie Manipulation (Chine)
11. Les étoiles du cirque de Pékin - Les moines Shaolin (Chine)
12. David Larible - Clown (Italie)
13. El Squad - danse costumes lumineux (Japon)
14. Zhang Fan - fil de ferriste (Chine) - канатоходец
15. Duo Racers - vélo (Ukraine)
16. Le cirque du Soleil - "Amaluna" / planche Coréenne (Canada)
17. Dani Lary - Le Wagon
18. Patrick Sebastien
Дополнительная информация: используемый видеоредактор - TMPGEnc MPEG Smart Renderer 4
Качество: HDTVRip
Контейнер: mkv
Видео кодек: H.264
Аудио кодек: AC3
Чаптеры: есть
Видео: H.264, 1920x1080, 25.000 fps, 10200 Kbps
Аудио: AC3, 2.0 ch, 48000 Hz, 384 Kbps

MediaInfo

General
Unique ID : 18671179122944323876634545545631591790 (0xE0BF0343B446349B907BDA17F3D6D6E)
Complete name : E:\Le Plus Grand Cabaret du Monde 30.01.16.mkv
Format : Matroska
Format version : Version 4 / Version 2
File size : 6.59 GiB
Duration : 1h 27mn
Overall bit rate : 10.8 Mbps
Encoded date : UTC 2016-01-31 06:58:25
Writing application : TMPGEnc MPEG Smart Renderer 4 Version 4.2.4.68
Writing library : TMPGEnc MPEG Smart Renderer 4 Version 4.2.4.68
Video
ID : 1
Format : AVC
Format/Info : Advanced Video Codec
Format profile : High@L4
Format settings, CABAC : Yes
Format settings, ReFrames : 4 frames
Codec ID : V_MPEG4/ISO/AVC
Duration : 1h 27mn
Bit rate : 10.2 Mbps
Width : 1 920 pixels
Height : 1 080 pixels
Display aspect ratio : 16:9
Frame rate mode : Constant
Frame rate : 25.000 fps
Standard : Component
Color space : YUV
Chroma subsampling : 4:2:0
Bit depth : 8 bits
Scan type : Interlaced
Scan order : Top Field First
Bits/(Pixel*Frame) : 0.198
Stream size : 6.23 GiB (94%)
Default : Yes
Forced : No
Color range : Limited
Color primaries : BT.601 PAL
Transfer characteristics : BT.470 System B, BT.470 System G
Matrix coefficients : BT.601
Audio
ID : 2
Format : AC-3
Format/Info : Audio Coding 3
Mode extension : CM (complete main)
Format settings, Endianness : Big
Codec ID : A_AC3
Duration : 1h 27mn
Bit rate mode : Constant
Bit rate : 384 Kbps
Channel(s) : 2 channels
Channel positions : Front: L R
Sampling rate : 48.0 KHz
Compression mode : Lossy
Stream size : 239 MiB (4%)
Language : French
Default : Yes
Forced : No
Menu

Скриншоты


Предыдущий выпуск телепередачи: http://cybertorrent.ru/viewtopic.php?t=5142482
Следующий выпуск телепередачи: http://cybertorrent.ru/viewtopic.php?t=5175538
[cybertorrent.ru].t2568.torrent 
Торрент: Зарегистрирован [ 2018-02-16 14:23 ] · 4B361FC599EBF69CCDCA100CAB6806E94FD0DCB3

Скачать .torrent

Скачать

33 KB

Статус: проверено
Скачан: 0 раз
Размер: 6,59 GB
Профиль [ЛС]
Показать сообщения:    

Текущее время: 17-Ноя 13:05

Часовой пояс: UTC ± 0



Вы не можете начинать темы
Вы не можете отвечать на сообщения
Вы не можете редактировать свои сообщения
Вы не можете удалять свои сообщения
Вы не можете голосовать в опросах
Вы не можете прикреплять файлы к сообщениям
Вы можете скачивать файлы
Torrents24.ru открытый BitTorrent Torrents24.pl открытый BitTorrent CyberTorrent.ru открытый BitTorrent BtList.ru рейтинг BitTorrent трекеров Яндекс.Метрика