Статистика раздачи
Размер:  1,45 GB   |    Зарегистрирован:  3 месяца 9 дней   |    Скачан:  0 раз

Полного источника не было: Никогда

 
   
 
 

lopster ®

Пол:
Не указан
Стаж:
3 месяца 9 дней
Сообщений:
612

Дедушка в подарок
Жанр: Мелодрама
Год выпуска: 2009
Продолжительность: 01:25:51
Режиссёр: Артур Виденмеер
В ролях: Иван Чуваткин, Евгения Бурдихина, Николай Иванов, Мария Миронова, Александр Михайлов, Константин Соловьев, Александр Тютин, Виталий Емашов, Лариса Маркина
Описание: Канун Нового года. Дед Мороз на новогодней ярмарке развлекает детишек, ему 66 лет, похож на сказочного Деда Мороза. Он помогает 7-ми летнему мальчику Антипу, и тот решает, что Дед Мороз настоящий. Мама (Серафима) и папа (Андрей) живут в предразводном состоянии, они постоянно заняты работой, на ребенка нет времени. Антип со взрослой серьезностью предпринимает попытки сохранить семью, и привлекает к этому делу Деда Мороза...
Доп. информация:
Автор релиза -
Источник аудио и видео для рипа - HDTV 1080i TS - моя запись с канала Наш Кинороман HD



Сэмпл: https://yadi.sk/i/VgEdv3353GnZNM
Рекламы нет!
Качество видео: HDTVRip
Формат видео: AVI
Видео: XviD, 704x400 (16:9), 25.000 fps, 1963 kbps, 0.279 bit/pixel
Аудио: Русский AC3, 48000 Гц, 6ch, 448 kbps

MediaInfo

Общее
Полное имя : D:\Дедушка.в.подарок.2009.HDTVRip-ylnian.avi
Формат : AVI
Формат/Информация : Audio Video Interleave
Размер файла : 1,45 Гбайт
Продолжительность : 1 ч. 25 м.
Общий поток : 2421 Кбит/сек
Название фильма : Дедушка.в.подарок.2009.HDTVRip-ylnian
Программа кодирования : VirtualDubMod 1.5.10.2 (build 2540/release)
Библиотека кодирования : VirtualDubMod build 2540/release
Видео
Идентификатор : 0
Формат : MPEG-4 Visual
Профиль формата : Advanced Simple@L5
Параметр BVOP формата : 1
Параметр QPel формата : Нет
Параметр GMC формата : Без точки перехода
Параметр матрицы формата : Default (MPEG)
Идентификатор кодека : XVID
Идентификатор кодека/Подсказка : XviD
Продолжительность : 1 ч. 25 м.
Битрейт : 1963 Кбит/сек
Ширина : 704 пикселя
Высота : 400 пикселей
Соотношение сторон : 16:9
Частота кадров : 25,000 кадров/сек
Цветовое пространство : YUV
Субдискретизация насыщенности : 4:2:0
Битовая глубина : 8 бит
Тип развёртки : Прогрессивная
Метод сжатия : С потерями
Бит/(Пиксели*Кадры) : 0.279
Размер потока : 1,18 Гбайт (81%)
Библиотека кодирования : XviD 67
Аудио
Идентификатор : 1
Формат : AC-3
Формат/Информация : Audio Coding 3
Параметр Endianness формата : Big
Идентификатор кодека : 2000
Продолжительность : 1 ч. 25 м.
Вид битрейта : Постоянный
Битрейт : 448 Кбит/сек
Каналы : 6 каналов
Расположение каналов : Front: L C R, Side: L R, LFE
Частота : 48,0 КГц
Частота кадров : 31,250 кадров/сек (1536 spf)
Битовая глубина : 16 бит
Метод сжатия : С потерями
Размер потока : 275 Мбайт (19%)
Выравнивание : Разделение по промежуткам
Продолжительность промежутка : 40 мс. (1,00 видеокадр)
Время предзагрузки промежутка : 500 мс.
Заголовок : RUS
ServiceKind/String : Complete Main

Скриншот c названием фильма

[cybertorrent.ru].t257.torrent 
Торрент: Зарегистрирован [ 2018-02-15 15:34 ] · 9265D836CD336A45853D53E5D65B2F4D6F158B75

Скачать .torrent

Скачать

15 KB

Статус: проверено
Скачан: 0 раз
Размер: 1,45 GB
Профиль [ЛС]
Показать сообщения:    

Текущее время: 25-Май 08:58

Часовой пояс: UTC ± 0



Вы не можете начинать темы
Вы не можете отвечать на сообщения
Вы не можете редактировать свои сообщения
Вы не можете удалять свои сообщения
Вы не можете голосовать в опросах
Вы не можете прикреплять файлы к сообщениям
Вы можете скачивать файлы