Статистика раздачи
Размер:  2,18 GB   |    Зарегистрирован:  3 месяца 6 дней   |    Скачан:  0 раз

Полного источника не было: Никогда

 
   
 
 

lopster ®

Пол:
Не указан
Стаж:
3 месяца 6 дней
Сообщений:
612

-Экипаж--Год выпуска: 2016Жанр: драма, приключения, триллерПродолжительность: 02:17:04--Режиссер:Николай Лебедев-В ролях:Данила Козловский, Владимир Машков, Агне Грудите, Сергей Кемпо, Катерина Шпица, Сергей Шакуров, Сергей Газаров, Елена Яковлева, Алёна Бабенко, Сергей Романович, Ксения Георгиади, Ирина Лачина, Вячеслав Разбегаев, Владимир Яглыч, Василий Мищенко, Дмитрий Золотухин, Ирина Пегова, Иван Агапов, Ольга Литвинова, Ирина Низина.-Описание:История талантливого молодого летчика Алексея Гущина. Он не признает авторитетов, предпочитая поступать в соответствии с личным кодексом чести. За невыполнение абсурдного приказа его выгоняют из военной авиации, и только чудом он получает шанс летать на гражданских самолетах.Гущин начинает свою летную жизнь сначала. Его наставник — командир воздушного судна — суровый и принципиальный Леонид Зинченко. Его коллега — второй пилот, неприступная красавица Александра. Отношения складываются непросто. Но на грани жизни и смерти, когда земля уходит из-под ног, вокруг — огонь и пепел и только в небе есть спасение, Гущин показывает все, на что он способен. Только вместе экипаж сможет совершить подвиг и спасти сотни жизней.--Дополнительная информация:- -Сэмпл Рип НЕ совместим с бытовыми DVD-проигрывателями.--Качество видео: BDRip-AVC (Исходник: Blu-ray Disc | 1080p | HDCLUB )
Формат видео: MKV
Видео: AVC (x264), 936x400 (2.34:1), 24.000 fps, ~1827 kbps avg, 0.203 bit/pixel
Аудио: 48 kHz, AC3 Dolby Digital, 3/2 (L,C,R,l,r) + LFE ch, 448 kbps
Главы: есть-

MediaInfo/log

log

x264 [info]: frame I:1437 Avg QP:15.92 size: 52620
x264 [info]: frame P:43461 Avg QP:19.09 size: 19154
x264 [info]: frame B:152645 Avg QP:20.79 size: 6367
x264 [info]: consecutive B-frames: 2.5% 2.4% 8.1% 22.7% 19.6% 30.2% 5.1% 2.1% 1.5% 2.3% 1.7% 0.4% 0.5% 0.5% 0.3%
x264 [info]: mb I I16..4: 8.7% 71.0% 20.3%
x264 [info]: mb P I16..4: 1.5% 12.9% 2.0% P16..4: 30.9% 37.7% 12.0% 0.0% 0.0% skip: 3.1%
x264 [info]: mb B I16..4: 0.1% 1.0% 0.1% B16..8: 38.3% 23.2% 4.0% direct: 5.6% skip:27.7% L0:45.7% L1:43.5% BI:10.9%
x264 [info]: 8x8 transform intra:77.5% inter:64.6%
x264 [info]: direct mvs spatial:98.4% temporal:1.6%
x264 [info]: coded y,uvDC,uvAC intra: 85.5% 87.1% 68.8% inter: 25.1% 31.9% 14.1%
x264 [info]: i16 v,h,dc,p: 12% 16% 6% 67%
x264 [info]: i8 v,h,dc,ddl,ddr,vr,hd,vl,hu: 7% 9% 7% 10% 15% 14% 14% 12% 13%
x264 [info]: i4 v,h,dc,ddl,ddr,vr,hd,vl,hu: 9% 11% 4% 9% 15% 14% 14% 11% 13%
x264 [info]: i8c dc,h,v,p: 42% 24% 17% 18%
x264 [info]: Weighted P-Frames: Y:8.6% UV:6.6%
x264 [info]: ref P L0: 47.8% 6.8% 16.9% 8.1% 5.9% 4.4% 3.5% 2.1% 1.7% 1.4% 1.2% 0.1% 0.0%
x264 [info]: ref B L0: 71.5% 13.0% 6.2% 3.1% 2.1% 1.6% 1.2% 0.7% 0.4% 0.2%
x264 [info]: ref B L1: 94.6% 5.4%
x264 [info]: kb/s:1827.16
General
Unique ID : 206676377641999949416581469250005841261 (0x9B7C6C25ABE664428E8F6CB67709356D)
Complete name : Ekipazh_(2016).BDRip-AVC.ac3_[All.Films][RG].mkv
Format : Matroska
Format version : Version 2
File size : 2.18 GiB
Duration : 2 h 17 min
Overall bit rate : 2 277 kb/s
Movie name : Экипаж (2016) BDRip-AVC | [All.Films][RG][rutracker.org]
Encoded date : UTC 2017-04-09 09:16:48
Writing application : mkvmerge v6.9.1 ('Blue Panther') 32bit built on Apr 18 2014 18:15:44
Writing library : libebml v1.3.0 + libmatroska v1.4.1
Video
ID : 1
Format : AVC
Format/Info : Advanced Video Codec
Format profile : High@L4.1
Format settings, CABAC : Yes
Format settings, ReFrames : 11 frames
Codec ID : V_MPEG4/ISO/AVC
Duration : 2 h 17 min
Bit rate : 1 828 kb/s
Width : 936 pixels
Height : 400 pixels
Display aspect ratio : 2.35:1
Frame rate mode : Constant
Frame rate : 24.000 FPS
Color space : YUV
Chroma subsampling : 4:2:0
Bit depth : 8 bits
Scan type : Progressive
Bits/(Pixel*Frame) : 0.203
Stream size : 1.71 GiB (78%)
Writing library : x264 core 148 r2744kMod b97ae06
Encoding settings : cabac=1 / ref=11 / deblock=1:-2:-2 / analyse=0x3:0x113 / me=umh / subme=11 / psy=1 / fade_compensate=0.00 / psy_rd=1.05:0.05 / mixed_ref=1 / me_range=38 / chroma_me=1 / trellis=2 / 8x8dct=1 / cqm=0 / deadzone=21,11 / fast_pskip=0 / chroma_qp_offset=-3 / threads=6 / lookahead_threads=1 / sliced_threads=0 / nr=0 / decimate=0 / interlaced=0 / bluray_compat=0 / constrained_intra=0 / bframes=14 / b_pyramid=2 / b_adapt=2 / b_bias=0 / direct=3 / weightb=1 / open_gop=0 / weightp=2 / keyint=240 / keyint_min=24 / scenecut=40 / intra_refresh=0 / rc_lookahead=60 / rc=2pass / mbtree=0 / bitrate=1828 / ratetol=1.0 / qcomp=0.60 / qpmin=0 / qpmax=69 / qpstep=4 / cplxblur=20.0 / qblur=0.5 / vbv_maxrate=50000 / vbv_bufsize=62500 / nal_hrd=none / filler=0 / ip_ratio=1.40 / pb_ratio=1.30 / aq=3:1.00 / zones=191700,197543,q=30
Default : Yes
Forced : No
Audio
ID : 2
Format : AC-3
Format/Info : Audio Coding 3
Mode extension : CM (complete main)
Format settings, Endianness : Big
Codec ID : A_AC3
Duration : 2 h 17 min
Bit rate mode : Constant
Bit rate : 448 kb/s
Channel(s) : 6 channels
Channel positions : Front: L C R, Side: L R, LFE
Sampling rate : 48.0 kHz
Frame rate : 31.250 FPS (1536 spf)
Compression mode : Lossy
Stream size : 440 MiB (20%)
Language : Russian
Default : Yes
Forced : No
Menu
00:00:00.000 : en:Chapter 01
00:10:07.315 : en:Chapter 02
00:22:12.705 : en:Chapter 03
00:32:04.463 : en:Chapter 04
00:44:39.425 : en:Chapter 05
00:54:12.748 : en:Chapter 06
01:05:24.003 : en:Chapter 07
01:17:50.373 : en:Chapter 08
01:29:18.435 : en:Chapter 09
01:37:11.658 : en:Chapter 10
01:49:33.733 : en:Chapter 11
02:05:27.603 : en:Chapter 12
02:17:12.182 : en:Chapter 13

FAQ по просмотру MKV/h.264/AAC

  • Смогу ли я запустить AVC фильм на своём компьютере?
  • Сампл из раздачи не воспроизводится/тормозит или отсутствует звук/изображение. Что делать?
  • Что такое H.264/AVC и зачем он нужен?
  • Что за дурацкий формат .MKV?
  • Почему MKV? Чем AVI хуже?
  • Не могу переключить/включить/выключить аудио/видео дорожки и/или субтитры. Что делать?
  • Как сделать так, чтобы по умолчанию при просмотре MKV файлов нужные/ненужные субтитры были включены/выключены, и/или сразу проигрывалась дорожка на нужном мне языке?
  • Будут ли фильмы в таком формате проигрываться на бытовых плеерах без компьютера?
  • Проигрываю фильм, а картинка очень сильно отличается от скринов/бледная/перенасыщенная. Что не так?
  • Можно ли сконвертировать AVC в DVD?
  • Почему сплюснута картинка / в характеристиках видео указано два разрешения / что такое анаморфное разрешение?
  • Зачем релизёры обманывают качающих и пишут в заголовке 720p/1080p, а на самом деле раздают видеоматериалы в непонятных разрешениях?
  • Можно ли вывести многоканальный FLAC/AAC-звук на внешний ресивер?
  • У меня 2-канальная акустика/стереонаушники. При просмотре видео почти не слышно/совсем не слышно речь/разговоры, играют только фоновые звуки. Что делать?
  • У меня стоит CoreAVC версии 1.9.5 или младше. При воспроизведении картинка рассыпается на квадраты и разноцветные пятна. Кривой рип?
  • Всё прочитал(-а), решения своей проблемы не нашёл(-шла)/не смог(-ла) разобраться. Что делать?
  • [cybertorrent.ru].t258.torrent 
    Торрент: Зарегистрирован [ 2018-02-15 15:34 ] · F9AF756F7BC082AB83EC26C4B8B51FF1F8D31E3E

    Скачать .torrent

    Скачать

    11 KB

    Статус: проверено
    Скачан: 0 раз
    Размер: 2,18 GB
    Профиль [ЛС]
    Показать сообщения:    

    Текущее время: 22-Май 00:05

    Часовой пояс: UTC ± 0



    Вы не можете начинать темы
    Вы не можете отвечать на сообщения
    Вы не можете редактировать свои сообщения
    Вы не можете удалять свои сообщения
    Вы не можете голосовать в опросах
    Вы не можете прикреплять файлы к сообщениям
    Вы можете скачивать файлы