Статистика раздачи
Размер:  1,38 GB   |    Зарегистрирован:  3 месяца 6 дней   |    Скачан:  0 раз

Полного источника не было: Никогда

Личеров:  5  [  0 KB/s  ]  
 
   
 
 

lopster ®

Пол:
Не указан
Стаж:
3 месяца 6 дней
Сообщений:
612

Любовь с ограничениями
Жанр: комедия, мелодрама
Год выпуска: 2017
Продолжительность: 01:38:30
Режиссер: Дмитрий Тюрин
В ролях: Павел Прилучный, Анна Старшенбаум, Илья Глинников, Алексей Чадов, Алексей Воробьев, Кирилл Плетнёв, Сергей Кутергин, Тимур Боканча, Ксения Иванова, Павел Шевандо, Наталья Бардо, Анастасия Чепелюк
Описание:
Однажды самый обычный парень Миша узнает об указе Президента России, по которому в крупных компаниях должно работать два процента людей с ограниченными возможностями. И тут в его «светлую» голову приходит идея, как воплотить свою давнюю мечту о богатой и беззаботной жизни. Не долго думая, Миша получает фиктивные медицинские документы, садится в коляску и едет на собеседование, и не куда-нибудь, а в сам «Нашгаз»! И, о чудо, им как раз не хватает одного человека до той самой квоты. Жизнь удалась! Престижная работа, большая зарплата, отличная квартира, весь мир открыт для него, только есть одно «но», одно маленькое ограничение - он должен постоянно быть в инвалидном кресле! И не просто быть в нем, он при этом еще не должен «спалиться».

Релиз:
Автор рипа: stalkerok
Сэмпл
Качество видео: WEB-DLRip-AVC [WEB-DL / 1080p]
Формат видео: MKV
Видео: 1875 Кбит/сек, 1132*474 (2,40:1), в 25,000 кадров/сек, AVC
Аудио: русский, 126 Кбит/сек, 48,0 КГц, 2 канала, AAC (LC)
Навигация по главам: есть

x264/MediaInfo

[09.04.2017 23:42:50] x264 [info]: frame I:1167 Avg QP:16.46 size: 52931
[09.04.2017 23:42:50] x264 [info]: frame P:39194 Avg QP:18.09 size: 18961
[09.04.2017 23:42:50] x264 [info]: frame B:107389 Avg QP:21.34 size: 5404
Общее
Уникальный идентификатор : 205807867724831081596432464258537264427 (0x9AD5274D5C3A44AAB305C21B509A952B)
Полное имя : M:\!!!!!!!!!!!!!!!!!!!\Love.S\Lubov.s.ogranichenijami.2016.WEB-DLRip-AVC.RUS.stalkerok.new-team.mkv
Формат : Matroska
Версия формата : Version 4 / Version 2
Размер файла : 1,38 Гбайт
Продолжительность : 1 ч. 38 м.
Общий поток : 2003 Кбит/сек
Название фильма : Любовь с ограничениями (2016) (Rip by stalkerok)
Дата кодирования : UTC 2017-04-09 20:44:38
Программа кодирования : mkvmerge v8.6.1 ('Flying') 64bit
Библиотека кодирования : libebml v1.3.3 + libmatroska v1.4.4
Видео
Идентификатор : 1
Формат : AVC
Формат/Информация : Advanced Video Codec
Профиль формата : High@L4.1
Параметр CABAC формата : Да
Параметр ReFrames формата : 14 кадров
Идентификатор кодека : V_MPEG4/ISO/AVC
Продолжительность : 1 ч. 38 м.
Битрейт : 1875 Кбит/сек
Ширина : 1132 пикселя
Высота : 474 пикселя
Соотношение сторон : 2,40:1
Режим частоты кадров : Постоянный
Частота кадров : 25,000 кадров/сек
Цветовое пространство : YUV
Субдискретизация насыщенности : 4:2:0
Битовая глубина : 8 бит
Тип развёртки : Прогрессивная
Бит/(Пиксели*Кадры) : 0.140
Размер потока : 1,29 Гбайт (94%)
Заголовок : Любовь с ограничениями (2016) (Rip by stalkerok)
Библиотека кодирования : x264 core 148 r2705+54 9f484c1 t_mod_Custom [8-bit@all X86_64]
Настройки программы : cabac=1 / ref=14 / deblock=1:-3:-2 / analyse=0x3:0x133 / me=umh / subme=10 / psy=1 / fade_compensate=0.00 / psy_rd=1.00:0.00 / mixed_ref=1 / me_range=32 / chroma_me=1 / trellis=2 / 8x8dct=1 / cqm=0 / deadzone=21,11 / fast_pskip=0 / chroma_qp_offset=-2 / threads=12 / lookahead_threads=3 / sliced_threads=0 / nr=0 / decimate=1 / interlaced=0 / bluray_compat=0 / constrained_intra=0 / fgo=0 / bframes=14 / b_pyramid=2 / b_adapt=2 / b_bias=0 / direct=3 / weightb=1 / open_gop=0 / weightp=2 / keyint=250 / keyint_min=25 / scenecut=40 / intra_refresh=0 / rc_lookahead=60 / rc=crf / mbtree=0 / crf=18.9000 / qcomp=0.65 / qpmin=0:0:0 / qpmax=69:69:69 / qpstep=4 / vbv_maxrate=50000 / vbv_bufsize=62500 / crf_max=0.0 / nal_hrd=none / filler=0 / ip_ratio=1.40 / pb_ratio=1.30 / aq=3:0.85 / aq-sensitivity=10.00 / aq-factor=1.00:1.00:1.00 / aq2=0 / aq3=0
Default : Да
Forced : Нет
Аудио
Идентификатор : 2
Формат : AAC
Формат/Информация : Advanced Audio Codec
Профиль формата : LC
Идентификатор кодека : A_AAC
Продолжительность : 1 ч. 38 м.
Битрейт : 126 Кбит/сек
Каналы : 2 канала
Расположение каналов : Front: L R
Частота : 48,0 КГц
Частота кадров : 46,875 кадров/сек (1024 spf)
Метод сжатия : С потерями
Размер потока : 88,6 Мбайт (6%)
Язык : Russian
Default : Да
Forced : Нет
Меню
00:00:00.000 : en:Глава 1
00:06:13.080 : en:Глава 2
00:12:44.080 : en:Глава 3
00:18:31.560 : en:Глава 4
00:26:05.880 : en:Глава 5
00:32:59.440 : en:Глава 6
00:38:25.920 : en:Глава 7
00:44:56.640 : en:Глава 8
00:50:20.560 : en:Глава 9
00:55:32.920 : en:Глава 10
01:01:07.480 : en:Глава 11
01:06:17.320 : en:Глава 12
01:12:28.000 : en:Глава 13
01:18:10.280 : en:Глава 14
01:24:30.800 : en:Глава 15
01:32:08.640 : en:Глава 16

Скриншоты

[cybertorrent.ru].t259.torrent 
Торрент: Зарегистрирован [ 2018-02-15 15:34 ] · 20A27F2DF3D5556A8AFC7403F17B02B42AB07F9D

Скачать .torrent

Скачать

14 KB

Статус: проверено
Скачан: 0 раз
Размер: 1,38 GB
Профиль [ЛС]
Показать сообщения:    

Текущее время: 22-Май 00:09

Часовой пояс: UTC ± 0



Вы не можете начинать темы
Вы не можете отвечать на сообщения
Вы не можете редактировать свои сообщения
Вы не можете удалять свои сообщения
Вы не можете голосовать в опросах
Вы не можете прикреплять файлы к сообщениям
Вы можете скачивать файлы