Статистика раздачи
Размер:  7,54 GB   |    Зарегистрирован:  4 месяца 27 дней   |    Скачан:  0 раз

Полного источника не было: Никогда

Личеров:  1  [  0 KB/s  ]  
 
   
 
 

Volga ®

Пол:
Не указан
Стаж:
5 месяцев
Сообщений:
92

Le Plus Grand Cabaret du Monde - 20.02.16
Год выпуска: 2016
Страна: Франция
Жанр: шоу, кабаре, цирк
Продолжительность: 01:38:02
Описание:
Выпуск (от 20.02.16) телепередачи "Le Plus Grand Cabaret du Monde"
(телеканал France 2) в Full HD качестве. Оставлены только выступления артистов. Перевод не требуется.
Выступают:
01. Spicy Circus - Trampowall
02. Tim Silver - Grandes Illusions
03. Fred Radix & son quatuor - Groupe Musical
04. Compania Havana
05. Le Restaurant - Humour avec les pieds
06. Bernard Bilis - Close-Up Cartes
07. Les 7 doigts de la main - Acrobates
08. Pierric - Magie Burlesque
09. Irish Celtic - Troupe Claquettes
10. Charlie Mag - Magicien Colombes
11. David Larible - L'orchestre
12. Andreii Romanovsky - Le Tube
13. Tim Silver
14. Trio Brodway - Main à Main
15. Alain Choquette & "Cats" - Mentalisme
15. Beth & Martin - Duo Lanières
17. Dani Lary - L'aquarium en Feu
18. Patrick Sebastien
Дополнительная информация: используемый видеоредактор - TMPGEnc MPEG Smart Renderer 4
Качество: HDTVRip
Контейнер: mkv
Видео кодек: H.264
Аудио кодек: AC3
Чаптеры: есть
Видео: H.264, 1920x1080, 25.000 fps, 10400 Kbps
Аудио: AC3, 2.0 ch, 48000 Hz, 384 Kbps

MediaInfo

General
Unique ID : 94759091251740015465747752979189400507 (0x4749EFE80B568D4DA02D97B2245703BB)
Complete name : E:\Le Plus Grand Cabaret du Monde 20.02.16.mkv
Format : Matroska
Format version : Version 4 / Version 2
File size : 7.54 GiB
Duration : 1h 38mn
Overall bit rate : 11.0 Mbps
Encoded date : UTC 2016-02-21 20:53:44
Writing application : TMPGEnc MPEG Smart Renderer 4 Version 4.2.4.68
Writing library : TMPGEnc MPEG Smart Renderer 4 Version 4.2.4.68
Video
ID : 1
Format : AVC
Format/Info : Advanced Video Codec
Format profile : High@L4
Format settings, CABAC : Yes
Format settings, ReFrames : 4 frames
Codec ID : V_MPEG4/ISO/AVC
Duration : 1h 38mn
Bit rate : 10.4 Mbps
Width : 1 920 pixels
Height : 1 080 pixels
Display aspect ratio : 16:9
Frame rate mode : Constant
Frame rate : 25.000 fps
Standard : Component
Color space : YUV
Chroma subsampling : 4:2:0
Bit depth : 8 bits
Scan type : Interlaced
Scan order : Top Field First
Bits/(Pixel*Frame) : 0.201
Stream size : 7.13 GiB (95%)
Default : Yes
Forced : No
Color range : Limited
Color primaries : BT.601 PAL
Transfer characteristics : BT.470 System B, BT.470 System G
Matrix coefficients : BT.601
Audio
ID : 2
Format : AC-3
Format/Info : Audio Coding 3
Mode extension : CM (complete main)
Format settings, Endianness : Big
Codec ID : A_AC3
Duration : 1h 38mn
Bit rate mode : Constant
Bit rate : 384 Kbps
Channel(s) : 2 channels
Channel positions : Front: L R
Sampling rate : 48.0 KHz
Compression mode : Lossy
Stream size : 269 MiB (3%)
Language : French
Default : Yes
Forced : No
Menu

Скриншоты


Предыдущий выпуск телепередачи: http://cybertorrent.ru/viewtopic.php?t=5162056
Следующий выпуск телепередачи: http://cybertorrent.ru/viewtopic.php?t=5183973
[cybertorrent.ru].t2592.torrent 
Торрент: Зарегистрирован [ 2018-02-16 14:23 ] · 2F9ADA1B88283ED339EC29C2E47E9FD771563B0C

Скачать .torrent

Скачать

38 KB

Статус: проверено
Скачан: 0 раз
Размер: 7,54 GB
Профиль [ЛС]
Показать сообщения:    

Текущее время: 15-Июл 21:22

Часовой пояс: UTC ± 0



Вы не можете начинать темы
Вы не можете отвечать на сообщения
Вы не можете редактировать свои сообщения
Вы не можете удалять свои сообщения
Вы не можете голосовать в опросах
Вы не можете прикреплять файлы к сообщениям
Вы можете скачивать файлы