Статистика раздачи
Размер:  1,46 GB   |    Зарегистрирован:  3 месяца 9 дней   |    Скачан:  0 раз

Полного источника не было: Никогда

Личеров:  3  [  0 KB/s  ]  
 
   
 
 

lopster ®

Пол:
Не указан
Стаж:
3 месяца 9 дней
Сообщений:
612

Танец Дели
Жанр: драма
Год выпуска: 2012
Продолжительность: 01:24:51
Режиссёр: Иван Вырыпаев
В ролях: Каролина Грушка, Ксения Кутепова, Игорь Гордин, Арина Маракулина, Инна Сухорецкая
Описание: «Танец Дели» — это семь короткометражных фильмов о знаменитой танцовщице, придумавшей потрясающий танец, который она назвала «Танец Дели». Это семь самостоятельных историй о любви, смерти и танце. Их действия происходят в одном и том же месте, в городской больнице, где герои встречаются, любят, переживают смерть своих близких и пытаются найти гармонию, покой и любовь. Сэмпл: multi-up, yadi.sk
Источник: HDTV 1080i
Качество видео: HDTVRip-AVC
Формат видео: MKV
Видео: AVC x264, 960x518 (1.853), 25.000 fps, 2 011 Kbps, 0.162 bit/pixel
Аудио: AC3, 48.0 KHz, 448 Kbps, 6 channels

x264

-[Information] [31.03.2017 8:27:31] x264 [info]: frame I:44    Avg QP:12.06  size: 68248
-[Information] [31.03.2017 8:27:31] x264 [info]: frame P:622   Avg QP:14.44  size: 21764
-[Information] [31.03.2017 8:27:31] x264 [info]: frame B:1884  Avg QP:16.14  size:  4592

MediaInfo

Код:General
Unique ID : 234697303253208648370032030279461661170 (0xB0910E718E5CD31B8CC4D041E0E669F2)
Complete name : e:\tanec.deli.2012.hdtvrip-avc.mkv
Format : Matroska
Format version : Version 4 / Version 2
File size : 1.46 GiB
Duration : 1h 24mn
Overall bit rate : 2 457 Kbps
Movie name : Танец Дели (Иван Вырыпаев, 2012)
Encoded date : UTC 2017-04-10 08:19:50
Writing application : mkvmerge v10.0.0 ('To Drown In You') 64bit
Writing library : libebml v1.3.4 + libmatroska v1.4.5
Attachements : cover.jpg
DURATION : 01:24:51.648000000
NUMBER_OF_FRAMES : 159114
NUMBER_OF_BYTES : 285132288
_STATISTICS_WRITING_APP : mkvmerge v10.0.0 ('To Drown In You') 64bit
_STATISTICS_WRITING_DATE_UTC : 2017-04-10 08:19:50
_STATISTICS_TAGS : BPS DURATION NUMBER_OF_FRAMES NUMBER_OF_BYTES
Video
ID : 1
Format : AVC
Format/Info : Advanced Video Codec
Format profile : High@L4.0
Format settings, CABAC : Yes
Format settings, ReFrames : 13 frames
Codec ID : V_MPEG4/ISO/AVC
Duration : 1h 24mn
Bit rate : 2 011 Kbps
Width : 960 pixels
Height : 518 pixels
Display aspect ratio : 1.85:1
Frame rate mode : Constant
Frame rate : 25.000 fps
Color space : YUV
Chroma subsampling : 4:2:0
Bit depth : 8 bits
Scan type : Progressive
Bits/(Pixel*Frame) : 0.162
Stream size : 1.16 GiB (80%)
Title : Танец Дели
Writing library : x264 core 148 r2744kMod b97ae06
Encoding settings : cabac=1 / ref=13 / deblock=1:-1:-1 / analyse=0x3:0x113 / me=umh / subme=10 / psy=1 / fade_compensate=0.00 / psy_rd=1.00:0.15 / mixed_ref=1 / me_range=32 / chroma_me=1 / trellis=2 / 8x8dct=1 / cqm=0 / deadzone=21,11 / fast_pskip=0 / chroma_qp_offset=-3 / threads=6 / lookahead_threads=1 / sliced_threads=0 / nr=0 / decimate=1 / interlaced=0 / bluray_compat=0 / constrained_intra=0 / bframes=9 / b_pyramid=2 / b_adapt=2 / b_bias=0 / direct=3 / weightb=1 / open_gop=0 / weightp=2 / keyint=250 / keyint_min=25 / scenecut=40 / intra_refresh=0 / rc_lookahead=60 / rc=2pass / mbtree=0 / bitrate=2011 / ratetol=1.0 / qcomp=0.60 / qpmin=0 / qpmax=69 / qpstep=4 / cplxblur=20.0 / qblur=0.5 / vbv_maxrate=25000 / vbv_bufsize=31250 / nal_hrd=none / filler=0 / ip_ratio=1.40 / pb_ratio=1.30 / aq=1:1.00
Language : Russian
Default : Yes
Forced : No
DURATION : 01:24:51.640000000
NUMBER_OF_FRAMES : 127291
NUMBER_OF_BYTES : 1277307153
_STATISTICS_WRITING_APP : mkvmerge v10.0.0 ('To Drown In You') 64bit
_STATISTICS_WRITING_DATE_UTC : 2017-04-10 08:19:50
_STATISTICS_TAGS : BPS DURATION NUMBER_OF_FRAMES NUMBER_OF_BYTES
Audio
ID : 2
Format : AC-3
Format/Info : Audio Coding 3
Mode extension : CM (complete main)
Format settings, Endianness : Big
Codec ID : A_AC3
Duration : 1h 24mn
Bit rate mode : Constant
Bit rate : 448 Kbps
Channel(s) : 6 channels
Channel positions : Front: L C R, Side: L R, LFE
Sampling rate : 48.0 KHz
Bit depth : 16 bits
Compression mode : Lossy
Stream size : 272 MiB (18%)
Language : Russian
Default : Yes
Forced : No

Скриншот c названием фильма

[cybertorrent.ru].t260.torrent 
Торрент: Зарегистрирован [ 2018-02-15 15:34 ] · A2AB17BFCEBDF4706D69DFBAD0511A16288AD294

Скачать .torrent

Скачать

15 KB

Статус: проверено
Скачан: 0 раз
Размер: 1,46 GB
Профиль [ЛС]
Показать сообщения:    

Текущее время: 25-Май 08:51

Часовой пояс: UTC ± 0



Вы не можете начинать темы
Вы не можете отвечать на сообщения
Вы не можете редактировать свои сообщения
Вы не можете удалять свои сообщения
Вы не можете голосовать в опросах
Вы не можете прикреплять файлы к сообщениям
Вы можете скачивать файлы