Статистика раздачи
Размер:  1,43 GB   |    Зарегистрирован:  3 месяца 7 дней   |    Скачан:  0 раз

Полного источника не было: Никогда

 
   
 
 

lopster ®

Пол:
Не указан
Стаж:
3 месяца 7 дней
Сообщений:
612

Везучий случай
«Не жили богато - нефиг начинать!»
Жанр: комедия
Год выпуска: 2017
Продолжительность: 01:32:52
Режиссер: Роман Самгин
В ролях: Андрей Рожков, Дмитрий Брекоткин, Вячеслав Мясников, Михаил Трухин, Алексей Маклаков, Олеся Железняк, Ольга Медынич, Ольга Дибцева, Валентина Мазунина, Юлия Михалкова, Андрей Юртаев, Татьяна Кравченко
Описание:
По сюжету фильма, Валерка с друзьями обнаруживает у себя лотерейный билет, который даже не помнит, кто и как покупал. А билет оказывается выигрышный - 43 миллиона рублей! Целое состояние для скромного Екатеринбурга! Да чего уж там, для целого отдела продавцов - Валерки и его друзей. Выигрыш решили делить на всех, устроили гулянку, настроили планов... но быстро поняли, что не видать им денег, если о них узнают жены. Мужики выкрадывают свои паспорта и сбегают из дома в Москву. А жены следуют за ними по пятам.

Релиз:
Автор рипа: stalkerok
Сэмпл
Качество видео: WEB-DLRip-AVC [Vezuchiy.sluchay.2017.1080p.WEB-DL.Rus.HDCLUB]
Формат видео: MKV
Видео: 2075 Кбит/сек, 1106*462 (2,40:1), в 24,000 кадра/сек, AVC
Аудио: русский, 126 Кбит/сек, 48,0 КГц, 2 канала, AAC (LC)
Навигация по главам: есть

x264/MediaInfo

x264 [info]: frame I:1043 Avg QP:18.85 size: 64458
x264 [info]: frame P:38961 Avg QP:20.51 size: 21071
x264 [info]: frame B:93746 Avg QP:23.54 size: 5943
Общее
Уникальный идентификатор : 223933281592952073995776079518466962447 (0xA877FB339FDBBBC6AAC9FAEF5CF9F40F)
Полное имя : M:\!!!!!!!!!!!!!!!!!!!\Везучий случай (2017)\Vezuchiy.sluchay.2017.WEB-DLRip-AVC.RUS.stalkerok.new-team.mkv
Формат : Matroska
Версия формата : Version 4 / Version 2
Размер файла : 1,43 Гбайт
Продолжительность : 1 ч. 32 м.
Общий поток : 2203 Кбит/сек
Название фильма : Везучий случай (2017) (Rip by stalkerok)
Дата кодирования : UTC 2017-04-13 16:47:43
Программа кодирования : mkvmerge v8.6.1 ('Flying') 64bit
Библиотека кодирования : libebml v1.3.3 + libmatroska v1.4.4
Видео
Идентификатор : 1
Формат : AVC
Формат/Информация : Advanced Video Codec
Профиль формата : High@L4.1
Параметр CABAC формата : Да
Параметр ReFrames формата : 13 кадров
Идентификатор кодека : V_MPEG4/ISO/AVC
Продолжительность : 1 ч. 32 м.
Битрейт : 2075 Кбит/сек
Ширина : 1106 пикселей
Высота : 462 пикселя
Соотношение сторон : 2,40:1
Режим частоты кадров : Постоянный
Частота кадров : 24,000 кадра/сек
Цветовое пространство : YUV
Субдискретизация насыщенности : 4:2:0
Битовая глубина : 8 бит
Тип развёртки : Прогрессивная
Бит/(Пиксели*Кадры) : 0.169
Размер потока : 1,35 Гбайт (94%)
Заголовок : Везучий случай (2017) (Rip by stalkerok)
Библиотека кодирования : x264 core 148 r2705+54 9f484c1 t_mod_Custom [8-bit@all X86_64]
Настройки программы : cabac=1 / ref=13 / deblock=1:-3:-2 / analyse=0x3:0x133 / me=umh / subme=10 / psy=1 / fade_compensate=0.00 / psy_rd=1.00:0.00 / mixed_ref=1 / me_range=32 / chroma_me=1 / trellis=2 / 8x8dct=1 / cqm=0 / deadzone=21,11 / fast_pskip=0 / chroma_qp_offset=-2 / threads=12 / lookahead_threads=3 / sliced_threads=0 / nr=0 / decimate=1 / interlaced=0 / bluray_compat=0 / constrained_intra=0 / fgo=0 / bframes=14 / b_pyramid=2 / b_adapt=2 / b_bias=0 / direct=3 / weightb=1 / open_gop=0 / weightp=2 / keyint=240 / keyint_min=23 / scenecut=40 / intra_refresh=0 / rc_lookahead=60 / rc=crf / mbtree=0 / crf=19.0500 / qcomp=0.65 / qpmin=0:0:0 / qpmax=69:69:69 / qpstep=4 / vbv_maxrate=50000 / vbv_bufsize=62500 / crf_max=0.0 / nal_hrd=none / filler=0 / ip_ratio=1.40 / pb_ratio=1.30 / aq=3:0.85 / aq-sensitivity=10.00 / aq-factor=1.00:1.00:1.00 / aq2=0 / aq3=0
Default : Да
Forced : Нет
Аудио
Идентификатор : 2
Формат : AAC
Формат/Информация : Advanced Audio Codec
Профиль формата : LC
Идентификатор кодека : A_AAC
Продолжительность : 1 ч. 32 м.
Битрейт : 126 Кбит/сек
Каналы : 2 канала
Расположение каналов : Front: L R
Частота : 48,0 КГц
Частота кадров : 46,875 кадров/сек (1024 spf)
Метод сжатия : С потерями
Размер потока : 83,9 Мбайт (6%)
Заголовок : AAC 2.0 @ 160 kbps
Язык : Russian
Default : Да
Forced : Нет
Меню
00:00:00.000 : en:1
00:07:33.625 : en:2
00:13:42.791 : en:3
00:18:57.666 : en:4
00:23:42.249 : en:5
00:28:36.915 : en:6
00:34:14.290 : en:7
00:39:22.956 : en:8
00:44:20.664 : en:9
00:50:18.830 : en:10
00:57:34.038 : en:11
01:03:44.913 : en:12
01:09:22.829 : en:13
01:15:19.995 : en:14
01:20:50.411 : en:15
01:25:51.619 : en:16

Скриншоты

[cybertorrent.ru].t262.torrent 
Торрент: Зарегистрирован [ 2018-02-15 15:34 ] · 156CD99337C8C31A0FF4CB8DC7A0EFB1B27347EA

Скачать .torrent

Скачать

15 KB

Статус: проверено
Скачан: 0 раз
Размер: 1,43 GB
Профиль [ЛС]
Показать сообщения:    

Текущее время: 23-Май 07:11

Часовой пояс: UTC ± 0



Вы не можете начинать темы
Вы не можете отвечать на сообщения
Вы не можете редактировать свои сообщения
Вы не можете удалять свои сообщения
Вы не можете голосовать в опросах
Вы не можете прикреплять файлы к сообщениям
Вы можете скачивать файлы