Статистика раздачи
Размер:  1,41 GB   |    Зарегистрирован:  3 месяца 12 дней   |    Скачан:  0 раз
Сидов:  13  [  0 KB/s  ]  
 
   
 
 

lopster ®

Пол:
Не указан
Стаж:
3 месяца 12 дней
Сообщений:
612

Огни большой деревни
Жанр: комедия
Год выпуска: 2016
Продолжительность: 01:21:22
Режиссер: Илья Учитель
В ролях: Дмитрий Дюжев, Кирилл Фролов, Максим Емельянов, Анастасия Мытражик, Василий Кортуков, Юрий Быков, Тагир Рахимов, Карен Мартиросян, Кирилл Полухин, Анна Воркуева, Константин Сухарьков
Описание:
«Родина» в смертельной опасности. Ровно через неделю ее сравняют с землей. Спасти кинотеатр может только успешная премьера. За дело берется пара супергероев без суперспособностей. В их распоряжении - камера, девушка-ниндзя и Дмитрий Дюжев. Правда, он об этом еще не знает.

Релиз:
Автор рипа: stalkerok
Сэмпл
Качество видео: WEB-DLRip-AVC [Ogni.bolshoy.derevni.2016.1080p.WEB-DL.Rus.HDCLUB]
Формат видео: MKV
Видео: 2052 Кбит/сек, 1070x448 (2.40:1), 24 кадр/сек, AVC
Аудио: русский, 384 Кбит/сек, 48 КГц, 16 бит, 5.1, AC3 [iTunes]
Навигация по главам: есть

x264/MediaInfo

x264 [info]: frame I:731 Avg QP:17.76 size: 67569
x264 [info]: frame P:31034 Avg QP:19.37 size: 22120
x264 [info]: frame B:85409 Avg QP:21.80 size: 6390
Общее
Уникальный идентификатор : 174202669668544924526609330235392035924 (0x830E36BAFC7FB9A5912729C1206A8C54)
Полное имя : M:\!!!!!!!!!!!!!!!!!!!\Огни большой деревни (2016)\Ogni.bolshoy.derevni.2016.WEB-DLRip-AVC.RUS.stalkerok.new-team.mkv
Формат : Matroska
Версия формата : Version 4 / Version 2
Размер файла : 1,41 Гбайт
Продолжительность : 1 ч. 21 м.
Общий поток : 2486 Кбит/сек
Название фильма : Огни большой деревни (2016) (Rip by stalkerok)
Дата кодирования : UTC 2017-04-13 17:00:28
Программа кодирования : mkvmerge v8.6.1 ('Flying') 64bit
Библиотека кодирования : libebml v1.3.3 + libmatroska v1.4.4
Видео
Идентификатор : 1
Формат : AVC
Формат/Информация : Advanced Video Codec
Профиль формата : High@L4.1
Параметр CABAC формата : Да
Параметр ReFrames формата : 13 кадров
Идентификатор кодека : V_MPEG4/ISO/AVC
Продолжительность : 1 ч. 21 м.
Битрейт : 2100 Кбит/сек
Ширина : 1070 пикселей
Высота : 448 пикселей
Соотношение сторон : 2,40:1
Соотношение сторон в оригинале : 2,40:1
Режим частоты кадров : Постоянный
Частота кадров : 24,000 кадра/сек
Цветовое пространство : YUV
Субдискретизация насыщенности : 4:2:0
Битовая глубина : 8 бит
Тип развёртки : Прогрессивная
Бит/(Пиксели*Кадры) : 0.183
Размер потока : 1,19 Гбайт (84%)
Заголовок : Огни большой деревни (2016) (Rip by stalkerok)
Библиотека кодирования : x264 core 148 r2705+54 9f484c1 t_mod_Custom [8-bit@all X86_64]
Настройки программы : cabac=1 / ref=13 / deblock=1:-3:-2 / analyse=0x3:0x133 / me=umh / subme=10 / psy=1 / fade_compensate=0.00 / psy_rd=1.00:0.00 / mixed_ref=1 / me_range=32 / chroma_me=1 / trellis=2 / 8x8dct=1 / cqm=0 / deadzone=21,11 / fast_pskip=0 / chroma_qp_offset=-2 / threads=12 / lookahead_threads=3 / sliced_threads=0 / nr=0 / decimate=1 / interlaced=0 / bluray_compat=0 / constrained_intra=0 / fgo=0 / bframes=14 / b_pyramid=2 / b_adapt=2 / b_bias=0 / direct=3 / weightb=1 / open_gop=0 / weightp=2 / keyint=240 / keyint_min=23 / scenecut=40 / intra_refresh=0 / rc_lookahead=60 / rc=crf / mbtree=0 / crf=19.0000 / qcomp=0.65 / qpmin=0:0:0 / qpmax=69:69:69 / qpstep=4 / vbv_maxrate=50000 / vbv_bufsize=62500 / crf_max=0.0 / nal_hrd=none / filler=0 / ip_ratio=1.40 / pb_ratio=1.30 / aq=3:0.80 / aq-sensitivity=10.00 / aq-factor=1.00:1.00:1.00 / aq2=0 / aq3=0
Default : Да
Forced : Нет
Аудио
Идентификатор : 2
Формат : AC-3
Формат/Информация : Audio Coding 3
Расширение режима : CM (complete main)
Параметр Endianness формата : Big
Идентификатор кодека : A_AC3
Продолжительность : 1 ч. 21 м.
Вид битрейта : Постоянный
Битрейт : 384 Кбит/сек
Каналы : 6 каналов
Расположение каналов : Front: L C R, Side: L R, LFE
Частота : 48,0 КГц
Частота кадров : 31,250 кадров/сек (1536 spf)
Метод сжатия : С потерями
Размер потока : 223 Мбайт (15%)
Заголовок : AC3 5.1 @ 384 kbps
Язык : Russian
Default : Да
Forced : Нет
Меню
00:00:00.000 : en:1
00:05:46.958 : en:2
00:10:02.749 : en:3
00:16:29.707 : en:4
00:21:05.040 : en:5
00:24:44.165 : en:6
00:30:13.665 : en:7
00:36:20.831 : en:8
00:41:29.581 : en:9
00:46:50.914 : en:10
00:53:53.539 : en:11
01:00:46.747 : en:12
01:07:35.788 : en:13
01:13:09.204 : en:14

Скриншоты

[cybertorrent.ru].t263.torrent 
Торрент: Зарегистрирован [ 2018-02-15 15:34 ] · AF95126AE38A88D073EE5682C76FDC4D3A45BED8

Скачать .torrent

Скачать

15 KB

Статус: проверено
Скачан: 0 раз
Размер: 1,41 GB
Профиль [ЛС]
Показать сообщения:    

Текущее время: 28-Май 03:20

Часовой пояс: UTC ± 0



Вы не можете начинать темы
Вы не можете отвечать на сообщения
Вы не можете редактировать свои сообщения
Вы не можете удалять свои сообщения
Вы не можете голосовать в опросах
Вы не можете прикреплять файлы к сообщениям
Вы можете скачивать файлы