Статистика раздачи
Размер:  1,48 GB   |    Зарегистрирован:  6 месяцев 28 дней   |    Скачан:  0 раз

Полного источника не было: Никогда

   
 

Гость ®

Пол:
Не указан

Дракула : Нерасказанное / Dracula Untold
Страна: США, Япония
Жанр: триллер, ужасы
Год выпуска: 2014
Продолжительность: 01:32:08
Перевод: Авторский (одноголосый закадровый) Сергей Визгунов
Перевод 2: Авторский (одноголосый закадровый) Андрей Дольский
Субтитры: нет
Режиссер: Гари Шор / Gary Shore

В ролях: Люк Эванс, Чарльз Дэнс, Сара Гадон, Доминик Купер, Арт Паркинсон, Дайармейд Мерта, Пол Кэй, Уильям Хьюстон, Ной Хантли
Описание: Плененный в детстве янычарами сын князя Валахии служит верой и правдой турецкому султану. Когда же он вырос, то вернулся в родные края, чтобы стать у власти, как его отец. Однажды он становится свидетелем нечеловеческой силы, которая губит его солдат. Его спасением оказалось нахождение под лучами солнца. После перепалки с янычарами, султан требует у Влада тысячу мальчиков, которые займут место в рядах янычар. Находясь с правителем Османской империи в дружественных отношениях он просит помиловать его людей. Но получает суровый и категорический отказ. Понимая обреченность ситуации, в которую он вовлекает собственный народ, Влад следует к пещере, где обитает демон, погубивший целое войско. Он просит у него силу, чтобы отомстить туркам. Но вернуть человеческое обличие он сможет через три дня, если возобладает над жаждой крови...

Сэмпл: http://multi-up.com/1222775
Качество видео: BDRip (Исходник BDRemux 1080p)
Формат видео: AVI

Видео: XviD 73, 720x304, (2,35:1), 23,976 fps, 1511 Кбит/с, 8 бит, 0.29 bit/pixel
Аудио: Русский (АС3, 6 ch (Front: L C R, Side: L R, LFE), 48,0 KHz, 384 Kbps) Сергей Визгунов
Аудио 2: Русский (АС3, 6 ch (Front: L C R, Side: L R, LFE), 48,0 KHz, 384 Kbps) Андрей Дольский

MediaInfo

Общее
Полное имя : D:\Фильмы на трекер\Дракула (триллер, ужасы 2014 год).avi
Формат : AVI
Формат/Информация : Audio Video Interleave
Размер файла : 1,48 Гбайт
Продолжительность : 1 ч. 32 м.
Общий поток : 2293 Кбит/сек
Программа кодирования : VirtualDubMod 1.5.10.2 (build 2540/release)
Библиотека кодирования : VirtualDubMod build 2540/release
Видео
Идентификатор : 0
Формат : MPEG-4 Visual
Профиль формата : Advanced Simple@L5
Параметр BVOP формата : 2
Параметр QPel формата : Нет
Параметр GMC формата : Без точки перехода
Параметр матрицы формата : Выборочная
Идентификатор кодека : XVID
Идентификатор кодека/Подсказка : XviD
Продолжительность : 1 ч. 32 м.
Битрейт : 1511 Кбит/сек
Ширина : 720 пикселей
Высота : 304 пикселя
Соотношение сторон : 2,35:1
Частота кадров : 23,976 (23976/1000) кадра/сек
Цветовое пространство : YUV
Субдискретизация насыщенности : 4:2:0
Битовая глубина : 8 бит
Тип развёртки : Прогрессивная
Метод сжатия : С потерями
Бит/(Пиксели*Кадры) : 0.288
Размер потока : 996 Мбайт (66%)
Библиотека кодирования : XviD 73
Аудио #1
Идентификатор : 1
Формат : AC-3
Формат/Информация : Audio Coding 3
Расширение режима : CM (complete main)
Параметр Endianness формата : Big
Идентификатор кодека : 2000
Продолжительность : 1 ч. 32 м.
Вид битрейта : Постоянный
Битрейт : 384 Кбит/сек
Каналы : 6 каналов
Расположение каналов : Front: L C R, Side: L R, LFE
Частота : 48,0 КГц
Частота кадров : 31,250 кадров/сек (1536 spf)
Метод сжатия : С потерями
Размер потока : 253 Мбайт (17%)
Выравнивание : Разделение по промежуткам
Продолжительность промежутка : 42 мс. (1,00 видеокадр)
Время предзагрузки промежутка : 500 мс.
Аудио #2
Идентификатор : 2
Формат : AC-3
Формат/Информация : Audio Coding 3
Расширение режима : CM (complete main)
Параметр Endianness формата : Big
Идентификатор кодека : 2000
Продолжительность : 1 ч. 32 м.
Вид битрейта : Постоянный
Битрейт : 384 Кбит/сек
Каналы : 6 каналов
Расположение каналов : Front: L C R, Side: L R, LFE
Частота : 48,0 КГц
Частота кадров : 31,250 кадров/сек (1536 spf)
Метод сжатия : С потерями
Размер потока : 253 Мбайт (17%)
Выравнивание : Разделение по промежуткам
Продолжительность промежутка : 42 мс. (1,00 видеокадр)
Время предзагрузки промежутка : 500 мс.

Скриншот c названием фильма

Скриншоты

[cybertorrent.ru].t263.torrent 
Торрент: Зарегистрирован [ 2019-03-18 10:04 ] · 39BB42613A84EB3257CF5DB7F254FD339159B631

Скачать .torrent

Скачать

15 KB

Статус: проверено
Скачан: 0 раз
Размер: 1,48 GB
terms.php
Показать сообщения:    

Текущее время: 16-Окт 05:38

Часовой пояс: UTC ± 0



Вы не можете начинать темы
Вы не можете отвечать на сообщения
Вы не можете редактировать свои сообщения
Вы не можете удалять свои сообщения
Вы не можете голосовать в опросах
Вы не можете прикреплять файлы к сообщениям
Вы можете скачивать файлы