BitTorrent клиенты



(Classical opera) de Literes - Los Elementos (opera harmonique dans le style espagnol) [Barroco Espanol Vol. 4] (Carlos Mena, Al Ayre Espanol, Eduardo Lopez Banzo) - 2008, FLAC (image+.cue) lossless

Ответить на тему
Статистика раздачи
Размер:  274 MB   |    Зарегистрирован:  11 месяцев 18 дней   |    Скачан:  0 раз

Полного источника не было: Никогда

 
   
 
 
Автор Сообщение

Usagi ®

Пол: Не указан

Стаж: 1 год

Сообщений: 835

Создавать темы 03-Мар-2018 10:47

[Цитировать]

Barroco Español Vol. 4 - Los Elementos (opera harmonique dans le style espagnol)
Жанр: Classical opera
Страна-производитель диска: Made in the EU
Год издания диска: 1995 - первопресс / 2008 - переиздание
Издатель (лейбл): Deutsche Harmonia Mundi / BMG Entertainment
Номер по каталогу: 88697 281822 / 25
Дата записи: 1997
Аудиокодек: FLAC
Тип рипа: image+.cue
Битрейт аудио: lossless
Продолжительность: 60:53
Источник: релизер
сайт-источник/ник/другое: Bodtje meeting music, подарок
Наличие сканов в содержимом раздачи: да
Треклист:
1 Frondosa, Apacible Estancia / Moradores De Estas Playas
2 Y Así Le Festejen
3 Pues Reverentes Aves Le Gorjean
4 Recitado: Y Al Rápido Sonido De Mi Aliento / Arieta: Olmo Apacible
5 Recitado: Mas Si Fuese La Planta Fugitiva
6 Y Pues Soy El Agua
7 El Ayre Soy / Arieta: Surque Halagüeña
8 Recitado: No Podrá / Arieta: De Flores Vestida
9 Y En Tan Triste Confución
10 Arieta: Ay Amor
11 Sienta La Terra
12 Recitado: Mas En La Oscura Noche / Arieta: Sedienta De Infujos
13 Iras Fatales Fulminan
14 Recitado: Y Aunque Intende La Fatiga / Arieta: Risueña El Aurora
15 Recitado: Y Pues La Luz
16 Y Sus Acordes Fragancias
17 Recitado: Y Pues Ya Se Desvían / Arieta: En Brazos Del Alba
18 Recitado: Deidades, Que En El Monte / Arieta: Suenen Los Clarines
19 Dormida Fatiga
20 El Moble Diamante
21 Y Pues Tierra
22 Flores; Aves; Fuentes; Rios
23 Esfera Copiosa

Исполнители

Antonio de Literes
Barroco Español Vol. 4 - Los Elementos (opera harmonique dans le style espagnol)
Soprano Vocals [El Ayre] – Marta Almajano (tracks: 4-1, 4-3, 4-7, 4-13, 4-17, 4-20, 4-22, 4-23)
Soprano Vocals [El Agua] – Anne Grimm (tracks: 4-4, 4-6, 4-13, 4-18, 4-20, 4-23)
Mezzo-soprano Vocals [El Fuego] – Xenia Meijer (tracks: 4-5, 4-12, 4-20, 4-23)
Mezzo-soprano Vocals [La Tierra] – Lola Casariego (tracks: 4-1, 4-3, 4-8, 4-13, 4-15, 4-20, 4-22, 4-23)
Countertenor Vocals – Carlos Mena (tracks: 4-1 to 4-23)
Baritone Vocals [El Tiempo] – Jordi Ricart (tracks: 4-11, 4-14, 4-23)
Al Ayre Español
Harpsichord – Eduardo López Banzo
Directed By – Eduardo López Banzo
Recorded: July 22-25, 1997, Les Hospices de Beaume
Release Date: 2008-07-01

Лог создания рипа

Exact Audio Copy V1.3 from 2. September 2016
EAC extraction logfile from 30. January 2018, 22:27
Various Artists / Deutsche Harmonia Mundi: 50 Jahre: 1958–2008
Used drive : TSSTcorpDVDWBD SE-406AB Adapter: 1 ID: 2
Read mode : Secure
Utilize accurate stream : Yes
Defeat audio cache : Yes
Make use of C2 pointers : No
Read offset correction : 6
Overread into Lead-In and Lead-Out : No
Fill up missing offset samples with silence : Yes
Delete leading and trailing silent blocks : No
Null samples used in CRC calculations : Yes
Used interface : Native Win32 interface for Win NT & 2000
Used output format : User Defined Encoder
Selected bitrate : 768 kBit/s
Quality : High
Add ID3 tag : No
Command line compressor : C:\Program Files (x86)\Exact Audio Copy\FLAC\FLAC.EXE
Additional command line options : -8 -e -p -V -T "ARTIST=%artist%" -T "TITLE=%title%" -T "ALBUM=%albumtitle%" -T "DATE=%year%" -T "TRACKNUMBER=%tracknr%" -T "GENRE=%genre%" -T "PERFORMER=%albuminterpret%" -T "COMPOSER=%composer%" %haslyrics%--tag-from-file=LYRICS="%lyricsfile%"%haslyrics% -T "ALBUMARTIST=%albumartist%" -T "DISCNUMBER=%cdnumber%" -T "TOTALDISCS=%totalcds%" -T "TOTALTRACKS=%numtracks%" -T "COMMENT=%comment%" %source% -o %dest%
TOC of the extracted CD
Track | Start | Length | Start sector | End sector
---------------------------------------------------------
1 | 0:00.00 | 3:06.47 | 0 | 13996
2 | 3:06.47 | 0:17.69 | 13997 | 15340
3 | 3:24.41 | 1:23.19 | 15341 | 21584
4 | 4:47.60 | 2:47.71 | 21585 | 34180
5 | 7:35.56 | 2:00.36 | 34181 | 43216
6 | 9:36.17 | 2:39.32 | 43217 | 55173
7 | 12:15.49 | 3:50.00 | 55174 | 72423
8 | 16:05.49 | 2:34.22 | 72424 | 83995
9 | 18:39.71 | 1:29.19 | 83996 | 90689
10 | 20:09.15 | 2:23.70 | 90690 | 101484
11 | 22:33.10 | 4:51.16 | 101485 | 123325
12 | 27:24.26 | 2:58.70 | 123326 | 136745
13 | 30:23.21 | 1:55.74 | 136746 | 145444
14 | 32:19.20 | 2:57.00 | 145445 | 158719
15 | 35:16.20 | 4:42.65 | 158720 | 179934
16 | 39:59.10 | 0:53.62 | 179935 | 183971
17 | 40:52.72 | 4:59.19 | 183972 | 206415
18 | 45:52.16 | 3:00.46 | 206416 | 219961
19 | 48:52.62 | 4:55.34 | 219962 | 242120
20 | 53:48.21 | 1:45.14 | 242121 | 250009
21 | 55:33.35 | 0:21.53 | 250010 | 251637
22 | 55:55.13 | 1:59.53 | 251638 | 260615
23 | 57:54.66 | 2:57.69 | 260616 | 273959
Range status and errors
Selected range
Filename K:\Rips\Various Artists - Deutsche Harmonia Mundi- 50 Jahre- 1958–2008.wav
Peak level 97.7 %
Extraction speed 2.1 X
Range quality 100.0 %
Test CRC DBBF0578
Copy CRC DBBF0578
Copy OK
No errors occurred
AccurateRip summary
Track 1 accurately ripped (confidence 67) [6BD1FE05] (AR v2)
Track 2 accurately ripped (confidence 68) [EB147605] (AR v2)
Track 3 accurately ripped (confidence 68) [1FC0EA1F] (AR v2)
Track 4 accurately ripped (confidence 68) [DCD3A3D9] (AR v2)
Track 5 accurately ripped (confidence 68) [10ABF4F6] (AR v2)
Track 6 accurately ripped (confidence 68) [D52837EC] (AR v2)
Track 7 accurately ripped (confidence 68) [3A95E30E] (AR v2)
Track 8 accurately ripped (confidence 68) [04E1B2C6] (AR v2)
Track 9 accurately ripped (confidence 68) [5B8FDF4C] (AR v2)
Track 10 accurately ripped (confidence 68) [BC627CCE] (AR v2)
Track 11 accurately ripped (confidence 68) [402C688E] (AR v2)
Track 12 accurately ripped (confidence 68) [8007BD29] (AR v2)
Track 13 accurately ripped (confidence 68) [F93AEC9E] (AR v2)
Track 14 accurately ripped (confidence 68) [BDDDB673] (AR v2)
Track 15 accurately ripped (confidence 68) [66C9D0EC] (AR v2)
Track 16 accurately ripped (confidence 68) [93AD3223] (AR v2)
Track 17 accurately ripped (confidence 68) [249E6697] (AR v2)
Track 18 accurately ripped (confidence 68) [16A0381F] (AR v2)
Track 19 accurately ripped (confidence 68) [0B2826B4] (AR v2)
Track 20 accurately ripped (confidence 68) [F78F855F] (AR v2)
Track 21 accurately ripped (confidence 68) [71A3AC11] (AR v2)
Track 22 accurately ripped (confidence 68) [0E412DFD] (AR v2)
Track 23 accurately ripped (confidence 66) [3DA5DC52] (AR v2)
All tracks accurately ripped
End of status report
---- CUETools DB Plugin V2.1.6
[CTDB TOCID: ZQZcLNe1101B5lc2hb29KMVfd1Y-] found
Submit result: ZQZcLNe1101B5lc2hb29KMVfd1Y- has been confirmed
Track | CTDB Status
1 | (68/69) Accurately ripped
2 | (68/69) Accurately ripped
3 | (68/69) Accurately ripped
4 | (68/69) Accurately ripped
5 | (68/69) Accurately ripped
6 | (68/69) Accurately ripped
7 | (68/69) Accurately ripped
8 | (68/69) Accurately ripped
9 | (68/69) Accurately ripped
10 | (68/69) Accurately ripped
11 | (68/69) Accurately ripped
12 | (68/69) Accurately ripped
13 | (68/69) Accurately ripped
14 | (68/69) Accurately ripped
15 | (68/69) Accurately ripped
16 | (68/69) Accurately ripped
17 | (68/69) Accurately ripped
18 | (68/69) Accurately ripped
19 | (67/69) Accurately ripped
20 | (67/69) Accurately ripped
21 | (67/69) Accurately ripped
22 | (66/69) Accurately ripped
23 | (67/69) Accurately ripped
==== Log checksum 792F56DD05A0E54E01F2E400C0769C373562D43EF56246C06357C931CEED313A ====

Содержание индексной карты (.CUE)

REM DATE 2008
REM DISCID 440E4417
REM COMMENT "ExactAudioCopy v1.3"
PERFORMER "Various Artists"
TITLE "Deutsche Harmonia Mundi: 50 Jahre: 1958–2008"
REM COMPOSER "Antonio de Literes"
FILE "Various Artists - Deutsche Harmonia Mundi- 50 Jahre- 1958–2008.flac" WAVE
TRACK 01 AUDIO
TITLE "Los Elementos: I. “Frondosa, apacible estancia” (Ayre, Tierra) / “Moradores de esta playas” (Ayre, Tierra)"
PERFORMER "Al Ayre Español, Eduardo López Banzo"
REM COMPOSER "Antonio de Literes"
INDEX 01 00:00:00
INDEX 02 01:38:63
TRACK 02 AUDIO
TITLE "Los Elementos: II. “Y así le festejen”"
PERFORMER "Al Ayre Español, Eduardo López Banzo"
REM COMPOSER "Antonio de Literes"
INDEX 01 03:06:47
TRACK 03 AUDIO
TITLE "Los Elementos: III. “Pues reverentes aves le gerjean” (Ayre, Tierra)"
PERFORMER "Al Ayre Español, Eduardo López Banzo"
REM COMPOSER "Antonio de Literes"
INDEX 01 03:24:41
TRACK 04 AUDIO
TITLE "Los Elementos: IV. Recitado: “Y al rápido sonido de mi aliento” / “Olmo apacible” (Agua)"
PERFORMER "Al Ayre Español, Eduardo López Banzo"
REM COMPOSER "Antonio de Literes"
INDEX 01 04:47:60
INDEX 02 05:32:10
TRACK 05 AUDIO
TITLE "Los Elementos: V. Recitando: “Mas si fuese la planta fugitiva” / “Fuego encendo” (Fuego)"
PERFORMER "Al Ayre Español, Eduardo López Banzo"
REM COMPOSER "Antonio de Literes"
INDEX 01 07:35:56
INDEX 02 08:08:20
TRACK 06 AUDIO
TITLE "Los Elementos: VI. “Y pues soy el agua” (Agua, Fuego)"
PERFORMER "Al Ayre Español, Eduardo López Banzo"
REM COMPOSER "Antonio de Literes"
INDEX 01 09:36:17
TRACK 07 AUDIO
TITLE "Los Elementos: VII. “El ayre soy” / Arieta: “Surque halagüeña” (Ayre)"
PERFORMER "Al Ayre Español, Eduardo López Banzo"
REM COMPOSER "Antonio de Literes"
INDEX 01 12:15:49
INDEX 02 13:12:44
TRACK 08 AUDIO
TITLE "Los Elementos: VIII. Recitado: “No podrá” / Arieta: “De flores vestida” (Tierra)"
PERFORMER "Al Ayre Español, Eduardo López Banzo"
REM COMPOSER "Antonio de Literes"
INDEX 01 16:05:49
INDEX 02 16:45:06
TRACK 09 AUDIO
TITLE "Los Elementos: IX. “Y en tan triste confusión”"
PERFORMER "Al Ayre Español, Eduardo López Banzo"
REM COMPOSER "Antonio de Literes"
INDEX 01 18:39:71
TRACK 10 AUDIO
TITLE "Los Elementos: X. Arieta: “Ay Amor” (Aurora)"
PERFORMER "Al Ayre Español, Eduardo López Banzo"
REM COMPOSER "Antonio de Literes"
INDEX 01 20:09:15
TRACK 11 AUDIO
TITLE "Los Elementos: XI. “Sienta la tierra” (Tiempo)"
PERFORMER "Al Ayre Español, Eduardo López Banzo"
REM COMPOSER "Antonio de Literes"
INDEX 01 22:33:10
TRACK 12 AUDIO
TITLE "Los Elementos: XII. Recitado: “Mas en la oscura noche” (Fuego)"
PERFORMER "Al Ayre Español, Eduardo López Banzo"
REM COMPOSER "Antonio de Literes"
INDEX 01 27:24:26
INDEX 02 28:04:54
TRACK 13 AUDIO
TITLE "Los Elementos: XIII. “Ires fatales fulminan” (Ayre, Tierra, Agua)"
PERFORMER "Al Ayre Español, Eduardo López Banzo"
REM COMPOSER "Antonio de Literes"
INDEX 01 30:23:21
TRACK 14 AUDIO
TITLE "Los Elementos: XIV. Recitado: “Y aunque intente la fatiga” / Arieta: “Risueña el aurora” (Tiempo)"
PERFORMER "Al Ayre Español, Eduardo López Banzo"
REM COMPOSER "Antonio de Literes"
INDEX 00 32:18:07
INDEX 01 32:19:20
INDEX 02 33:16:56
TRACK 15 AUDIO
TITLE "Los Elementos: XV. Recitado: “Y pues la lux” / Arieta. “Rompa la tierra” (Tierra)"
PERFORMER "Al Ayre Español, Eduardo López Banzo"
REM COMPOSER "Antonio de Literes"
INDEX 01 35:16:20
INDEX 02 36:34:62
TRACK 16 AUDIO
TITLE "Los Elementos: XVI. “Y sus acordes fragancias”"
PERFORMER "Al Ayre Español, Eduardo López Banzo"
REM COMPOSER "Antonio de Literes"
INDEX 01 39:59:10
TRACK 17 AUDIO
TITLE "Los Elementos: XVII. Recitado: “Y pues ya se desvían” / Arieta: “En brazos del alba” (Ayre)"
PERFORMER "Al Ayre Español, Eduardo López Banzo"
REM COMPOSER "Antonio de Literes"
INDEX 01 40:52:72
INDEX 02 44:19:74
TRACK 18 AUDIO
TITLE "Los Elementos: XVIII. Recitado: “Deidades, que en el monte” / Arieta: “Suenen los clarines” (Agua)"
PERFORMER "Al Ayre Español, Eduardo López Banzo"
REM COMPOSER "Antonio de Literes"
INDEX 01 45:52:16
INDEX 02 46:41:07
TRACK 19 AUDIO
TITLE "Los Elementos: XIX. “Dormida fatiga” (Aurora)"
PERFORMER "Al Ayre Español, Eduardo López Banzo"
REM COMPOSER "Antonio de Literes"
INDEX 01 48:52:62
TRACK 20 AUDIO
TITLE "Los Elementos: XX. “El moble diamante” (Agua, Tierra, Ayre, Fuego)"
PERFORMER "Al Ayre Español, Eduardo López Banzo"
REM COMPOSER "Antonio de Literes"
INDEX 01 53:48:21
TRACK 21 AUDIO
TITLE "Los Elementos: XXI. “Y pues tierra”"
PERFORMER "Al Ayre Español, Eduardo López Banzo"
REM COMPOSER "Antonio de Literes"
INDEX 01 55:33:35
TRACK 22 AUDIO
TITLE "Los Elementos: XXII. “Flores; aves; fuentes; rios” (Ayre, Tierra)"
PERFORMER "Al Ayre Español, Eduardo López Banzo"
REM COMPOSER "Antonio de Literes"
INDEX 01 55:55:13
TRACK 23 AUDIO
TITLE "Los Elementos: XXIII. “Esfera copiosa” (Ayre, Agua, Fuego, Tierra, Aurora, Tiempo)"
PERFORMER "Al Ayre Español, Eduardo López Banzo"
REM COMPOSER "Antonio de Literes"
INDEX 01 57:54:66
[cybertorrent.ru].t26377.torrent 
Торрент: Зарегистрирован [ 2018-03-03 10:50 ] · B258DABDE1D3C35EC28CE44C86E4B10460CA45D0

Скачать .torrent

Скачать

12 KB

Статус: проверено
Скачан: 0 раз
Размер: 274 MB
terms.php
[Профиль] [ЛС]
Показать сообщения:    
Ответить на тему

Текущее время: 22-Фев 03:38

Часовой пояс: UTC + 3



Вы не можете начинать темы
Вы не можете отвечать на сообщения
Вы не можете редактировать свои сообщения
Вы не можете удалять свои сообщения
Вы не можете голосовать в опросах
Вы не можете прикреплять файлы к сообщениям
Вы можете скачивать файлы