Статистика раздачи
Размер:  1,46 GB   |    Зарегистрирован:  3 месяца 6 дней   |    Скачан:  0 раз

Полного источника не было: Никогда

 
   
 
 

lopster ®

Пол:
Не указан
Стаж:
3 месяца 6 дней
Сообщений:
612

Параграф 78: Фильм первый
-WEBRip-1080p | WEBRip-AVC-Жанр: фантастика, боевик, триллер
Год выпуска: 2007
Продолжительность: 01:27:42
Режиссёр: Михаил Хлебородов
В ролях: Гоша Куценко, Владимир Вдовиченков, Григорий Сиятвинда, Анастасия Сланевская (Слава), Станислав Дужников, Азиз Бейшеналиев, Анатолий Белый, Юсуп Бахшиев, Михаил Ефремов, Александр Тютин
Описание: В недалеком будущем команда специального назначения получает новое важное задание, которое становится для давно уже отошедших от дел спецназовцев единственной возможностью снова увидеть бывших соратников по опасным миссиям. Тем более, что очень важные вопросы их личных взаимоотношений так и остались до конца не решенными.
Они так и не приучились называть друг друга по именам, им куда ближе прижившиеся когда-то на службе оперативные псевдонимы, но время и опыт меняют даже тех суперпрофессионалов, что всю жизнь привыкли подчиняться незыблемому и непререкаемому Параграфу. И на сверхсекретной ракетной базе, куда приводит команду высочайший приказ, им придется лицом к лицу столкнуться не только с внешней опасностью, но и друг с другом…
Доп. информация: Звук взят с официального DVD
Сэмпл: http://multi-up.com/1149980
Качество видео: WEBRip-AVC Исходник
Формат видео: MKV
Видео: MPEG-4 AVC/H.264 / 2000 kbps / 1024x432 / 25.000 fps
Аудио: AC3 / 6 ch / 384 kbps / 48 kHz

Log

x264 [info]: frame I:1285 Avg QP:14.12 size: 67464
x264 [info]: frame P:34171 Avg QP:17.61 size: 20953
x264 [info]: frame B:96069 Avg QP:20.81 size: 5320

MediaInfo

General
Unique ID : 177862199413453797190801240116949435995 (0x85CF037A247178B9AC56279467E8465B)
Complete name : J:\Torrents\Готовые релизы\Параграф 78 - Фильм первый (2007) WEBRip-AVC.mkv
Format : Matroska
Format version : Version 2
File size : 1.46 GiB
Duration : 1 h 27 min
Overall bit rate : 2 383 kb/s
Movie name : Параграф 78: Фильм первый (2007)
Encoded date : UTC 2017-04-13 16:52:24
Writing application : mkvmerge v5.5.0 ('Healer') built on Apr 24 2012 23:47:03
Writing library : libebml v1.2.3 + libmatroska v1.3.0
Video
ID : 1
Format : AVC
Format/Info : Advanced Video Codec
Format profile : High@L3.1
Format settings, CABAC : Yes
Format settings, ReFrames : 8 frames
Codec ID : V_MPEG4/ISO/AVC
Duration : 1 h 27 min
Bit rate : 2 000 kb/s
Width : 1 024 pixels
Height : 432 pixels
Display aspect ratio : 2.40:1
Frame rate mode : Constant
Frame rate : 25.000 FPS
Color space : YUV
Chroma subsampling : 4:2:0
Bit depth : 8 bits
Scan type : Progressive
Bits/(Pixel*Frame) : 0.181
Stream size : 1.20 GiB (82%)
Title : WEBRip (AVC) / MPEG-4 AVC/H.264 / 2000 kbps / 1024x432 / 25.000 fps
Writing library : x264 core 146 r2538 121396c
Encoding settings : cabac=1 / ref=8 / deblock=1:0:0 / analyse=0x3:0x113 / me=umh / subme=10 / psy=1 / psy_rd=1.00:0.00 / mixed_ref=1 / me_range=32 / chroma_me=1 / trellis=2 / 8x8dct=1 / cqm=0 / deadzone=21,11 / fast_pskip=0 / chroma_qp_offset=-2 / threads=6 / lookahead_threads=1 / sliced_threads=0 / nr=0 / decimate=1 / interlaced=0 / bluray_compat=0 / constrained_intra=0 / bframes=9 / b_pyramid=2 / b_adapt=2 / b_bias=0 / direct=3 / weightb=1 / open_gop=0 / weightp=2 / keyint=250 / keyint_min=25 / scenecut=40 / intra_refresh=0 / rc_lookahead=50 / rc=2pass / mbtree=1 / bitrate=2000 / ratetol=1.0 / qcomp=0.60 / qpmin=0 / qpmax=69 / qpstep=4 / cplxblur=20.0 / qblur=0.5 / vbv_maxrate=14000 / vbv_bufsize=14000 / nal_hrd=none / filler=0 / ip_ratio=1.40 / aq=1:1.00
Language : Russian
Default : Yes
Forced : Yes
Audio
ID : 2
Format : AC-3
Format/Info : Audio Coding 3
Mode extension : CM (complete main)
Format settings, Endianness : Big
Codec ID : A_AC3
Duration : 1 h 27 min
Bit rate mode : Constant
Bit rate : 384 kb/s
Channel(s) : 6 channels
Channel positions : Front: L C R, Side: L R, LFE
Sampling rate : 48.0 kHz
Frame rate : 31.250 FPS (1536 spf)
Bit depth : 16 bits
Compression mode : Lossy
Stream size : 241 MiB (16%)
Title : Original DVD (Rus) / AC3 / 6 ch / 384 kbps / 48 kHz
Language : Russian
Default : Yes
Forced : Yes

Скриншот c названием фильма

Скриншоты

Цитата:
  • Исходник предоставлен пользователем maksnew
[cybertorrent.ru].t264.torrent 
Торрент: Зарегистрирован [ 2018-02-15 15:34 ] · A479211E9FC6334740E2B7D436DE8AE1DCB54AB8

Скачать .torrent

Скачать

15 KB

Статус: проверено
Скачан: 0 раз
Размер: 1,46 GB
Профиль [ЛС]
Показать сообщения:    

Текущее время: 22-Май 00:07

Часовой пояс: UTC ± 0



Вы не можете начинать темы
Вы не можете отвечать на сообщения
Вы не можете редактировать свои сообщения
Вы не можете удалять свои сообщения
Вы не можете голосовать в опросах
Вы не можете прикреплять файлы к сообщениям
Вы можете скачивать файлы