Статистика раздачи
Размер:  1,46 GB   |    Зарегистрирован:  3 месяца 11 дней   |    Скачан:  0 раз

Полного источника не было: Никогда

 
   
 
 

lopster ®

Пол:
Не указан
Стаж:
3 месяца 11 дней
Сообщений:
612

После тебя- Год выпуска: 2016
Выпущено: Россия / Production Value WorldWide
Жанр: драма
Продолжительность: 01:55:12-Режиссёр:
Анна Матисон-В ролях:
Сергей Безруков, Анастасия Безрукова, Алёна Бабенко, Карина Андоленко, Владимир Меньшов, Мария Смольникова, Тамара Акулова, Степан Куликов, Галина Бокашевская, Сергей Вершинин-Описание:
«Чтобы сделать что-то, нужно или от рождения быть отчаянным, или чтобы обстоятельства стали отчаянными». Так думает Алексей Темников, поставленный жизнью в те самые отчаянные обстоятельства, когда важным остается лишь одно: «Что я оставлю после себя?» Вопрос, важный для любого мужчины, обострен до предела тем, что Темников — гениальный танцор, лишенный возможности танцевать. Травма, полученная на сцене 20 лет назад и прервавшая его карьеру, прогрессирует, и совсем скоро Темников не сможет ходить, что для него равносильно смерти. Помочь или просто поддержать Темникова никто не может, и не потому, что нет желающих, а потому, что он сам этого категорически не желает. Тяжелый характер и неоспоримый талант превратили его жизнь в тотальное одиночество.-Релиз групп | | КиноПоиск | Сэмпл |-Качество: WEB-DLRip [1080p.WEB-DL]
Формат: AVI
Видео: 720x304 (2.37:1), 25 fps, XviD build 67 ~1418 kbps avg, 0.26 bit/pixel
Аудио: 48 kHz, AC3 Dolby Digital, 3/2 (L,C,R,l,r) + LFE ch, ~384 kbps avg - iTunes Russia-

Скриншоты

-

MediaInfo

Код:Общее
Полное имя : D:\Posle_tebya_2016_WEB-DLRip_iT_by_Dalemake.avi
Формат : AVI
Формат/Информация : Audio Video Interleave
Размер файла : 1,46 Гбайт
Продолжительность : 1 ч. 55 м.
Общий поток : 1813 Кбит/сек
Программа кодирования : VirtualDubMod 1.5.10.3 | www.virtualdub-fr.org || (build 2550/release)
Библиотека кодирования : VirtualDubMod build 2550/release
Видео
Идентификатор : 0
Формат : MPEG-4 Visual
Профиль формата : Advanced Simple@L5
Параметр BVOP формата : 1
Параметр QPel формата : Нет
Параметр GMC формата : Без точки перехода
Параметр матрицы формата : Выборочная
Идентификатор кодека : XVID
Идентификатор кодека/Подсказка : XviD
Продолжительность : 1 ч. 55 м.
Битрейт : 1419 Кбит/сек
Ширина : 720 пикселей
Высота : 304 пикселя
Соотношение сторон : 2,35:1
Частота кадров : 25,000 кадров/сек
Цветовое пространство : YUV
Субдискретизация насыщенности : 4:2:0
Битовая глубина : 8 бит
Тип развёртки : Прогрессивная
Метод сжатия : С потерями
Бит/(Пиксели*Кадры) : 0.259
Размер потока : 1,14 Гбайт (78%)
Библиотека кодирования : XviD 67
Аудио
Идентификатор : 1
Формат : AC-3
Формат/Информация : Audio Coding 3
Расширение режима : CM (complete main)
Параметр Endianness формата : Big
Идентификатор кодека : 2000
Продолжительность : 1 ч. 55 м.
Вид битрейта : Постоянный
Битрейт : 384 Кбит/сек
Каналы : 6 каналов
Расположение каналов : Front: L C R, Side: L R, LFE
Частота : 48,0 КГц
Битовая глубина : 16 бит
Метод сжатия : С потерями
Задержка видео : 24 мс.
Размер потока : 316 Мбайт (21%)
Выравнивание : Разделение по промежуткам
Продолжительность промежутка : 40 мс. (1,00 видеокадр)
Время предзагрузки промежутка : 500 мс.
-
[cybertorrent.ru].t265.torrent 
Торрент: Зарегистрирован [ 2018-02-15 15:34 ] · BB526A9CD7964F852AB04F63BF845FE254D98C29

Скачать .torrent

Скачать

15 KB

Статус: проверено
Скачан: 0 раз
Размер: 1,46 GB
Профиль [ЛС]
Показать сообщения:    

Текущее время: 27-Май 01:29

Часовой пояс: UTC ± 0



Вы не можете начинать темы
Вы не можете отвечать на сообщения
Вы не можете редактировать свои сообщения
Вы не можете удалять свои сообщения
Вы не можете голосовать в опросах
Вы не можете прикреплять файлы к сообщениям
Вы можете скачивать файлы