Статистика раздачи
Размер:  2,18 GB   |    Зарегистрирован:  7 месяцев 2 дня   |    Скачан:  0 раз

Полного источника не было: Никогда

   
 

Гость ®

Пол:
Не указан

Марсианин / The Martian
Страна: США, Великобритания
Жанр: фантастика, приключения
Год выпуска: 2015
Продолжительность: 02:21:29
Перевод: Авторский (одноголосый закадровый) Андрей Гаврилов
Субтитры: Русские (forced)
Режиссер: Ридли Скотт / Ridley Scott
В ролях: Мэтт Дэймон, Джессика Честейн, Чиветел Эджиофор, Кристен Уиг, Джефф Дэниелс, Майкл Пенья, Шон Бин, Кейт Мара, Себастьян Стэн
Описание: Вокруг ни души. В скором будущем люди прилетят на Марс, только вот будущее наступит не раньше, чем через четыре года. Хоть жилой модуль и функционирует, но запасов еды и воды хватит на месяц, как максимум на два месяца. Никто даже не знает, что Марк остался в живых. Ведь команду «Арес-3» в срочном порядке эвакуировали, причиной тому – сильнейшая песчаная буря. Понимая в какой безнадежной ситуации находится наш главный герой на самом деле и что шансов выжить ровно ноль, Марк продолжает бороться за жизнь. Он выращивает пищу, собирает воду и старается сообщить землянам что он есть, что он выжил и хочет быть спасенным! Успеют ли спасти такого отчаянного борца его коллеги, вопреки всем законам и своему руководству?

Сэмпл: http://multi-up.com/1222962
Качество видео: BDRip (Исходник Marsianin.2015.BDRemux.1080p.nnm-club)
Формат видео: AVI
Видео: XviD 73, 720x304, (2,35:1), 23,976 fps, 1415 Кбит/с, 8 бит, 0.27 bit/pixel
Аудио: Русский (АС3, 6 ch (Front: L C R, Side: L R, LFE), 48,0 KHz, 384 Kbps) Андрей Гаврилов
Аудио 2: Английский (АС3, 6 ch (Front: L C R, Side: L R, LFE), 48,0 KHz, 384 Kbps) Оригинал

MediaInfo

Общее
Полное имя : D:\Фильмы на трекер\Марсианин (фантастика, приключения 2015 год).avi
Формат : AVI
Формат/Информация : Audio Video Interleave
Профиль формата : OpenDML
Размер файла : 2,18 Гбайт
Продолжительность : 2 ч. 21 м.
Общий поток : 2200 Кбит/сек
Программа кодирования : VirtualDubMod 1.5.10.2 (build 2540/release)
Библиотека кодирования : VirtualDubMod build 2540/release
Видео
Идентификатор : 0
Формат : MPEG-4 Visual
Профиль формата : Advanced Simple@L5
Параметр BVOP формата : 2
Параметр QPel формата : Нет
Параметр GMC формата : Без точки перехода
Параметр матрицы формата : Выборочная
Идентификатор кодека : XVID
Идентификатор кодека/Подсказка : XviD
Продолжительность : 2 ч. 21 м.
Битрейт : 1415 Кбит/сек
Ширина : 720 пикселей
Высота : 304 пикселя
Соотношение сторон : 2,35:1
Частота кадров : 23,976 (23976/1000) кадра/сек
Цветовое пространство : YUV
Субдискретизация насыщенности : 4:2:0
Битовая глубина : 8 бит
Тип развёртки : Прогрессивная
Метод сжатия : С потерями
Бит/(Пиксели*Кадры) : 0.270
Размер потока : 1,40 Гбайт (64%)
Библиотека кодирования : XviD 73
Аудио #1
Идентификатор : 1
Формат : AC-3
Формат/Информация : Audio Coding 3
Расширение режима : CM (complete main)
Параметр Endianness формата : Big
Идентификатор кодека : 2000
Продолжительность : 2 ч. 21 м.
Вид битрейта : Постоянный
Битрейт : 384 Кбит/сек
Каналы : 6 каналов
Расположение каналов : Front: L C R, Side: L R, LFE
Частота : 48,0 КГц
Частота кадров : 31,250 кадров/сек (1536 spf)
Метод сжатия : С потерями
Размер потока : 389 Мбайт (17%)
Выравнивание : Разделение по промежуткам
Продолжительность промежутка : 42 мс. (1,00 видеокадр)
Время предзагрузки промежутка : 500 мс.
Аудио #2
Идентификатор : 2
Формат : AC-3
Формат/Информация : Audio Coding 3
Расширение режима : CM (complete main)
Параметр Endianness формата : Big
Идентификатор кодека : 2000
Продолжительность : 2 ч. 21 м.
Вид битрейта : Постоянный
Битрейт : 384 Кбит/сек
Каналы : 6 каналов
Расположение каналов : Front: L C R, Side: L R, LFE
Частота : 48,0 КГц
Частота кадров : 31,250 кадров/сек (1536 spf)
Метод сжатия : С потерями
Размер потока : 389 Мбайт (17%)
Выравнивание : Разделение по промежуткам
Продолжительность промежутка : 42 мс. (1,00 видеокадр)
Время предзагрузки промежутка : 500 мс.

Скриншот c названием фильма

Скриншоты

[cybertorrent.ru].t266.torrent 
Торрент: Зарегистрирован [ 2019-03-18 10:04 ] · AB220E105EF635C5A99B956E3DFF739D8517326E

Скачать .torrent

Скачать

11 KB

Статус: проверено
Скачан: 0 раз
Размер: 2,18 GB
terms.php
Показать сообщения:    

Текущее время: 20-Окт 10:57

Часовой пояс: UTC ± 0



Вы не можете начинать темы
Вы не можете отвечать на сообщения
Вы не можете редактировать свои сообщения
Вы не можете удалять свои сообщения
Вы не можете голосовать в опросах
Вы не можете прикреплять файлы к сообщениям
Вы можете скачивать файлы