Статистика раздачи
Размер:  1,77 GB   |    Зарегистрирован:  3 месяца 6 дней   |    Скачан:  0 раз

Полного источника не было: Никогда

 
   
 
 

lopster ®

Пол:
Не указан
Стаж:
3 месяца 6 дней
Сообщений:
612

Дорога без конца- Жанр: мелодрама, драма
Год выпуска: 2015
Продолжительность: 01:29:43
Режиссёр: Владимир Толкачиков
В ролях: Вера Алентова, Владимир Зайцев, Николай Захаров, Сергей Рудзевич, Алла Сергийко, Мария Карпова, Иван Михайловский, Николай Сердцев, Олег Филипчик, Дмитрий Смирнов
Описание: Наши дни. Российская провинция. Самые разные люди собрались в салоне пассажирского автобуса. Автобус не прибудет в пункт назначения. Для троих пассажиров и водителя этот день станет последним. Но, кроме зрителя, об этом никто не знает. Пока не наступил час Х, пассажиры будут ссориться и мириться, знакомиться и расставаться, рушить собственные семьи и гулять на чужой свадьбе...
Сэмпл: http://sendfile.su/1327306

Качество видео: DCPRip-AVC (Road_without_end_2048x1080_кинозал)
Формат видео: MKV
Видео: 1024x540 (1.896:1), 25 fps, ~2502 kbps avg, 0,181 bit/pixel
Аудио: 48 kHz, AAC, 2/0 (L,R) ch, ~224 kbps avg

MediaInfo

General
Unique ID : 181723003039278112400346416423372127836 (0x88B693CAD52DC765A968A7CEB3B4FE5C)
Format : Matroska
Format version : Version 4 / Version 2
File size : 1.77 GiB
Duration : 1h 29mn
Overall bit rate : 2 822 Kbps
Encoded date : UTC 2017-04-16 14:58:55
Writing application : mkvmerge v10.0.0 ('To Drown In You') 64bit
Writing library : libebml v1.3.4 + libmatroska v1.4.5
Video #1
ID : 1
Format : AVC
Format/Info : Advanced Video Codec
Format profile : High@L4.1
Format settings, CABAC : Yes
Format settings, ReFrames : 9 frames
Codec ID : V_MPEG4/ISO/AVC
Duration : 1h 29mn
Bit rate : 2 502 Kbps
Width : 1 024 pixels
Height : 540 pixels
Display aspect ratio : 1.896
Frame rate mode : Constant
Frame rate : 25.000 fps
Color space : YUV
Chroma subsampling : 4:2:0
Bit depth : 8 bits
Scan type : Progressive
Bits/(Pixel*Frame) : 0.181
Stream size : 1.57 GiB (89%)
Writing library : x264 core 148 r2638 7599210
Encoding settings : cabac=1 / ref=9 / deblock=1:-3:-2 / analyse=0x3:0x133 / me=umh / subme=10 / psy=1 / psy_rd=1.00:0.00 / mixed_ref=1 / me_range=32 / chroma_me=1 / trellis=2 / 8x8dct=1 / cqm=0 / deadzone=21,11 / fast_pskip=0 / chroma_qp_offset=-2 / threads=6 / lookahead_threads=1 / sliced_threads=0 / nr=0 / decimate=1 / interlaced=0 / bluray_compat=0 / constrained_intra=0 / bframes=9 / b_pyramid=2 / b_adapt=2 / b_bias=0 / direct=1 / weightb=1 / open_gop=0 / weightp=2 / keyint=250 / keyint_min=25 / scenecut=40 / intra_refresh=0 / rc=crf / mbtree=0 / crf=18.1 / qcomp=0.65 / qpmin=0 / qpmax=69 / qpstep=4 / ip_ratio=1.40 / pb_ratio=1.30 / aq=3:0.90
Language : English
Default : Yes
Forced : No
Audio #2
ID : 2
Format : AAC
Format/Info : Advanced Audio Codec
Format profile : LC
Codec ID : A_AAC
Duration : 1h 29mn
Bit rate : 317 Kbps
Channel(s) : 2 channels
Channel positions : Front: L R
Sampling rate : 48.0 KHz
Frame rate : 46.875 fps (1024 spf)
Compression mode : Lossy
Stream size : 204 MiB (11%)
Language : English
Default : Yes
Forced : No

лог

raw [info]: 1024x540p 1:1 @ 25/1 fps (cfr)
x264 [info]: using SAR=1/1
x264 [info]: using cpu capabilities: MMX2 SSE2Fast SSSE3 SSE4.2 AVX XOP FMA4 FMA3 LZCNT BMI1
x264 [info]: profile High, level 4.1
x264 [info]: frame I:885 Avg QP:17.29 size: 84490
x264 [info]: frame P:33017 Avg QP:19.10 size: 25431
x264 [info]: frame B:100688 Avg QP:22.06 size: 7642
x264 [info]: consecutive B-frames: 1.9% 2.4% 7.7% 54.0% 16.4% 11.7% 2.4% 2.4% 0.6% 0.5%
x264 [info]: mb I I16..4: 7.6% 66.1% 26.3%
x264 [info]: mb P I16..4: 1.2% 11.1% 2.1% P16..4: 35.0% 18.8% 18.3% 1.2% 0.5% skip:11.7%
x264 [info]: mb B I16..4: 0.2% 2.4% 0.3% B16..8: 30.0% 11.5% 4.4% direct: 5.3% skip:45.9% L0:37.9% L1:43.4% BI:18.7%
x264 [info]: 8x8 transform intra:77.8% inter:59.7%
x264 [info]: coded y,uvDC,uvAC intra: 82.8% 82.7% 53.1% inter: 19.8% 16.4% 3.5%
x264 [info]: i16 v,h,dc,p: 47% 22% 12% 19%
x264 [info]: i8 v,h,dc,ddl,ddr,vr,hd,vl,hu: 19% 14% 13% 6% 8% 10% 9% 10% 11%
x264 [info]: i4 v,h,dc,ddl,ddr,vr,hd,vl,hu: 17% 11% 7% 7% 12% 13% 12% 11% 11%
x264 [info]: i8c dc,h,v,p: 47% 20% 22% 10%
x264 [info]: Weighted P-Frames: Y:3.5% UV:1.5%
x264 [info]: ref P L0: 54.3% 14.3% 13.4% 4.9% 3.7% 3.0% 2.6% 1.7% 1.8% 0.3% 0.0%
x264 [info]: ref B L0: 81.0% 9.2% 3.9% 2.0% 1.5% 1.2% 0.8% 0.3%
x264 [info]: ref B L1: 93.6% 6.4%
x264 [info]: kb/s:2502.27
x264 [total]: encoded 134590 frames, 7.78 fps, 2502.27 kb/s

Скриншоты


[cybertorrent.ru].t266.torrent 
Торрент: Зарегистрирован [ 2018-02-15 15:34 ] · 965EB198062E8A92854FC59BF42495FC2B95BFC7

Скачать .torrent

Скачать

18 KB

Статус: проверено
Скачан: 0 раз
Размер: 1,77 GB
Профиль [ЛС]
Показать сообщения:    

Текущее время: 21-Май 19:01

Часовой пояс: UTC ± 0



Вы не можете начинать темы
Вы не можете отвечать на сообщения
Вы не можете редактировать свои сообщения
Вы не можете удалять свои сообщения
Вы не можете голосовать в опросах
Вы не можете прикреплять файлы к сообщениям
Вы можете скачивать файлы