Статистика раздачи
Размер:  753 MB   |    Зарегистрирован:  3 месяца 7 дней   |    Скачан:  0 раз

Полного источника не было: Никогда

 
   
 
 

lopster ®

Пол:
Не указан
Стаж:
3 месяца 7 дней
Сообщений:
612

Здравствуйте Вам! Год выпуска: 2007.
Жанр: лирическая драма.
Продолжительность: 01:40:36.
Режиссер: Владимир Крайнев.
В ролях:
Татьяна Колганова, Владимир Шевельков, Анатолий Лобоцкий, Наталья Немшилова, Георгий Морозюк, Наталия Васько, Елена Ерёменко, Диана Малая, Юрий Мажуга, Вика Золтова, Сергей Солопай, Оксана Брагинец, Виталий Иванченко, Галина Балан-Тимкина, Ирина Лановенко, Валерий Легин, Мирослав Домалевский, Ульяна Воробей, Анатолий Григорьев, Ольга Лежнёва, Ярослава Филимоненко.
Описание:
Мало кому удается дважды войти в одну воду! Да и стоит ли пытаться это сделать?
Собирая мужа в командировку, Анна находит в кармане его корпоративного пиджака записку от любовницы и какие-то ключи. Она потрясена – ведь в их с Олегом жизни все было так безоблачно! Анна решает проследить, куда отправляется муж, и видит его в аэропорту с молодой женщиной и ребенком. Она в отчаянии едет домой, но по дороге встречает старого знакомого: 17 лет назад она объяснилась ему в любви, но молодой человек исчез и из городка, и из ее жизни. Андрей в плену нахлынувших воспоминаний пытается возобновить отношения с Анной. Тем временем, муж Олег, который в аэропорту просто помогал незнакомой женщине, но в Москву действительно ездил к любовнице, решает порвать с ней и «вернуться в семью». Анна же отправляется на свидание с Андреем. Но… тот опять сбегает с места встречи, а Анна туда вообще не доезжает. Вскоре начавший было разрушаться союз Анны и Олега восстанавливается. А что же это за записка и ключи были найдены в пиджаке? Ответ окажется до смешного прост!
Доп. информация:
Страна: Россия , Украина .
Киностудия: Star Media.
Автор сценария: Виктор Траченко.
Оператор: Владимир Иванов.
Композитор: Михаил Алексеев.
Художник: Анатолий Пидопригора.
Премьера: 19 октября 2008 года (Беларусь-1), 7 декабря 2008 года (Россия-1).

Еще постеры

Большое спасибо elia.codognia за DVD.

Качество: DVDRip
Формат: AVI
Видео: 624x352 (1.77:1), 25 fps, XviD build 73 ~908 kbps avg, 0.17 bit/pixel
Аудио: 48 kHz, MPEG Layer 3, 2 ch, ~128.00 kbps avg

Отчет Media Info

Общее
Полное имя : Zdravstvujte.Vam.2007.XvuD.DVDRip_753.avi
Format : AVI
Format/Info : Audio Video Interleave
File size : 753 MiB
Duration : 1h 40mn
Overall bit rate : 1 046 Kbps
Writing application : VirtualDubMod 1.5.10.3 | www.virtualdub-fr.org || (build 2550/release)
Writing library : VirtualDubMod build 2550/release
Video
ID : 0
Format : MPEG-4 Visual
Format profile : Advanced Simple@L5
Format settings, BVOP : 1
Format settings, QPel : No
Format settings, GMC : No warppoints
Format settings, Matrix : Custom
Codec ID : XVID
Codec ID/Hint : XviD
Duration : 1h 40mn
Bit rate : 908 Kbps
Width : 624 pixels
Height : 352 pixels
Display aspect ratio : 16:9
Frame rate : 25.000 fps
Color space : YUV
Chroma subsampling : 4:2:0
Bit depth : 8 bits
Scan type : Progressive
Compression mode : Lossy
Bits/(Pixel*Frame) : 0.165
Stream size : 653 MiB (87%)
Writing library : XviD 73
Audio
ID : 1
Format : MPEG Audio
Format version : Version 1
Format profile : Layer 3
Codec ID : 55
Codec ID/Hint : MP3
Duration : 1h 40mn
Bit rate mode : Constant
Bit rate : 128 Kbps
Channel(s) : 2 channels
Sampling rate : 48.0 KHz
Compression mode : Lossy
Stream size : 92.1 MiB (12%)
Alignment : Aligned on interleaves
Interleave, duration : 40 ms (1.00 video frame)
Interleave, preload duratio : 504 ms
Writing library : LAME3.99r
Encoding settings : -m s -V 4 -q 2 -lowpass 17 -b 128

Скриншоты


Альтернативный хост


[cybertorrent.ru].t269.torrent 
Торрент: Зарегистрирован [ 2018-02-15 15:34 ] · 405A5E2D305DE54F38A24E277FE7990F8DA9D4E4

Скачать .torrent

Скачать

15 KB

Статус: проверено
Скачан: 0 раз
Размер: 753 MB
Профиль [ЛС]
Показать сообщения:    

Текущее время: 22-Май 23:04

Часовой пояс: UTC ± 0



Вы не можете начинать темы
Вы не можете отвечать на сообщения
Вы не можете редактировать свои сообщения
Вы не можете удалять свои сообщения
Вы не можете голосовать в опросах
Вы не можете прикреплять файлы к сообщениям
Вы можете скачивать файлы