Статистика раздачи
Размер:  698 MB   |    Зарегистрирован:  3 месяца 12 дней   |    Скачан:  0 раз

Полного источника не было: Никогда

 
   
 
 

lopster ®

Пол:
Не указан
Стаж:
3 месяца 12 дней
Сообщений:
612

Жулики
-------------------------------------------------------------------------------------
Год выпуска: 2006
Жанр: Комедия
Продолжительность: 01:17:14
-------------------------------------------------------------------------------------
Режиссер: Мария Маханько
В ролях: Александр Яцко, Кирилл Жандаров, Данила Ариков, Мария Мерзлякова, Мария Звонарева и др.
-------------------------------------------------------------------------------------
Описание: Картина повествует о двух жуликах-неудачниках, залезших в одну и ту же квартиру с целью ограбления. Хозяева квартиры отдыхают в Сочи, думая, что их квартиру сторожит специально оставленная там для этого провинциальная девочка Катя. Но Катю злоумышленники уже отправили в Сочи.. Несмотря на сложившуюся благоприятную ситуацию для воровства, жулики оказываются заложниками квартиры, где никто не ожидал увидеть конкурентов.
-------------------------------------------------------------------------------------
Все раздачи фильма: Жулики
-------------------------------------------------------------------------------------
Скрины:

-------------------------------------------------------------------------------------
Качество: DVDRip
Видео: 512x288 (1.78:1), 25 fps, DivX Codec 5.2.1 alpha ~1126 kbps avg, 0.30 bit/pixel
Аудио: 48 kHz, MPEG Layer 3, 2 ch, ~128.00 kbps avg

MI

Код:Общее
Полное имя : C:\otkat\Видео\Жулики\Zhyliki.avi
Формат : AVI
Формат/Информация : Audio Video Interleave
Размер файла : 698 Мбайт
Продолжительность : 1 ч. 17 м.
Общий поток : 1264 Кбит/сек
Видео
Идентификатор : 0
Формат : MPEG-4 Visual
Параметр BVOP формата : 1
Параметр QPel формата : Нет
Параметр GMC формата : Без точки перехода
Параметр матрицы формата : Default (H.263)
Режим смешивания : Сжатый битовый поток
Идентификатор кодека : DX50
Идентификатор кодека/Подсказка : DivX 5
Продолжительность : 1 ч. 17 м.
Битрейт : 1126 Кбит/сек
Ширина : 512 пикселей
Высота : 288 пикселей
Соотношение сторон : 16:9
Частота кадров : 25,000 кадров/сек
Цветовое пространство : YUV
Субдискретизация насыщенности : 4:2:0
Битовая глубина : 8 бит
Тип развёртки : Прогрессивная
Метод сжатия : С потерями
Бит/(Пиксели*Кадры) : 0.306
Размер потока : 622 Мбайт (89%)
Заголовок : Video
Библиотека кодирования : DivX 5.2.1 Alpha (UTC 2004-09-08)
Аудио
Идентификатор : 1
Формат : MPEG Audio
Версия формата : Version 1
Профиль формата : Layer 3
Идентификатор кодека : 55
Идентификатор кодека/Подсказка : MP3
Продолжительность : 1 ч. 17 м.
Вид битрейта : Постоянный
Битрейт : 128 Кбит/сек
Каналы : 2 канала
Частота : 48,0 КГц
Метод сжатия : С потерями
Размер потока : 70,7 Мбайт (10%)
Выравнивание : Разделение по промежуткам
Продолжительность промежутка : 40 мс. (1,00 видеокадр)
Время предзагрузки промежутка : 500 мс.
Заголовок : Audio
Библиотека кодирования : LAME3.92

Скриншоты


-------------------------------------------------------------------------------------
Мои раздачи:
Все что раздаю:
-------------------------------------------------------------------------------------

[cybertorrent.ru].t27.torrent 
Торрент: Зарегистрирован [ 2018-02-15 13:57 ] · 89BF30BD8ECCC2DA9C08C8A93A1A0D1D4A4BFC47

Скачать .torrent

Скачать

14 KB

Статус: проверено
Скачан: 0 раз
Размер: 698 MB
Профиль [ЛС]
Показать сообщения:    

Текущее время: 28-Май 02:58

Часовой пояс: UTC ± 0



Вы не можете начинать темы
Вы не можете отвечать на сообщения
Вы не можете редактировать свои сообщения
Вы не можете удалять свои сообщения
Вы не можете голосовать в опросах
Вы не можете прикреплять файлы к сообщениям
Вы можете скачивать файлы