Статистика раздачи
Размер:  2,84 GB   |    Зарегистрирован:  3 месяца 6 дней   |    Скачан:  0 раз

Полного источника не было: Никогда

 
   
 
 

lopster ®

Пол:
Не указан
Стаж:
3 месяца 6 дней
Сообщений:
612

Притяжение«Земля - землянам!»- Жанр: фантастика
Год выпуска: 2017
Продолжительность: 02:12:32
Режиссер: Фёдор Бондарчук
В ролях: Ирина Старшенбаум, Олег Меньшиков, Александр Петров, Никита Кукушкин, Евгений Сангаджиев, Дарья Руденок, Риналь Мухаметов, Людмила Максакова, Евгений Коряковский, Ульяна Куликова, Сергей Шаталов, Евгений Михеев, Никита Тарасов, Сергей Гармаш
Описание: Как только что стало известно, сбитый над Москвой неопознанный объект имеет, возможно, внеземное происхождение. Большая часть столичного Чертанова оцеплена, к месту крушения стягиваются представители силовых структур, решается вопрос об эвакуации местных жителей. По словам нашего источника в Минобороны, сейчас специальная комиссия пытается вступить в контакт с так называемыми «гостями». В эти минуты мы готовим экстренный выпуск новостей и о развитии событий вы узнаете первыми…- -Качество: BDRip-AVC (исходник - Blu-ray|ATTRACTION_HDCLUB)
Формат видео: MKV
Видео: x264, 1152x482 (2.40:1) 24.000 fps, ~2561 kbps, 0.192 bit/pixel
Аудио: 48 kHz, AC3 Dolby Digital, 5.1 (Front: L C R, Side: L R, LFE) ch, ~448 kbps-

MediaInfo | x264 log

Format : Matroska
Format version : Version 4 / Version 2
File size : 2.84 GiB
Duration : 2h 12 min
Overall bit rate : 3 070 kb/s
Movie name : Притяжение (2017) :: AFM ::
Encoded date : UTC 2017-04-19 10:25:26
Writing application : mkvmerge v8.3.0 ('Over the Horizon') 32bit
Writing library : libebml v1.3.1 + libmatroska v1.4.2
Video
ID : 1
Format : AVC
Format/Info : Advanced Video Codec
Format profile : High@L4.1
Format settings, CABAC : Yes
Format settings, ReFrames : 10 frames
Codec ID : V_MPEG4/ISO/AVC
Duration : 2h 12 min
Bit rate : 2 561 kb/s
Width : 1 152 pixels
Height : 482 pixels
Display aspect ratio : 2.40:1
Frame rate mode : Constant
Frame rate : 24.000 FPS
Color space : YUV
Chroma subsampling : 4:2:0
Bit depth : 8 bits
Scan type : Progressive
Bits/(Pixel*Frame) : 0.192
Stream size : 2.37 GiB (83%)
Title : BDRip by AFM
Writing library : x264 core 150 r2773+45 df9a66c 7mod [8-bit@all X86_64]
Encoding settings : cabac=1 / ref=10 / deblock=1:-2:-2 / analyse=0x3:0x113 / me=umh / subme=10 / psy=1 / fade_compensate=0.00 / psy_rd=1.00:0.00 / mixed_ref=1 / me_range=32 / chroma_me=0 / trellis=2 / 8x8dct=1 / cqm=0 / deadzone=21,11 / fast_pskip=0 / chroma_qp_offset=-2 / threads=6 / lookahead_threads=1 / sliced_threads=0 / nr=0 / decimate=1 / interlaced=0 / bluray_compat=0 / constrained_intra=0 / fgo=0 / bframes=12 / b_pyramid=2 / b_adapt=2 / b_bias=0 / direct=1 / weightb=1 / open_gop=0 / weightp=2 / keyint=240 / keyint_min=23 / scenecut=40 / intra_refresh=0 / rc_lookahead=60 / rc=crf / mbtree=0 / crf=18.6000 / qcomp=0.65 / qpmin=0:0:0 / qpmax=69:69:69 / qpstep=4 / vbv_maxrate=50000 / vbv_bufsize=62500 / crf_max=0.0 / nal_hrd=none / filler=0 / ip_ratio=1.35 / pb_ratio=1.20 / aq=4:0.80 / aq-sensitivity=10.00 / aq-factor=1.00:1.00:1.00 / aq2=0 / aq3=0 / zones=176635,190843,q=27
Language : English
Default : Yes
Forced : No
Audio
ID : 2
Format : AC-3
Format/Info : Audio Coding 3
Mode extension : CM (complete main)
Format settings, Endianness : Big
Codec ID : A_AC3
Duration : 2h 12 min
Bit rate mode : Constant
Bit rate : 448 kb/s
Channel(s) : 6 channels
Channel positions : Front: L C R, Side: L R, LFE
Sampling rate : 48.0 kHz
Frame rate : 31.250 FPS (1536 spf)
Compression mode : Lossy
Stream size : 425 MiB (15%)
Title : AC3, 5.1 ~448 kbps
Language : Russian
Default : Yes
Forced : No
Menu
00:00:00.000 : ru:Chapter 1
00:10:03.708 : ru:Chapter 2
00:23:20.208 : ru:Chapter 3
00:29:36.458 : ru:Chapter 4
00:42:24.416 : ru:Chapter 5
00:50:32.000 : ru:Chapter 6
01:02:20.500 : ru:Chapter 7
01:14:38.791 : ru:Chapter 8
01:23:25.291 : ru:Chapter 9
01:37:06.583 : ru:Chapter 10
01:46:10.125 : ru:Chapter 11
01:55:38.500 : ru:Chapter 12

x264

x264 [info]: frame I:1793 Avg QP:17.10 size: 66753
x264 [info]: frame P:41916 Avg QP:19.45 size: 25240
x264 [info]: frame B:147134 Avg QP:21.36 size: 9695
x264 [info]: consecutive B-frames: 2.0% 2.3% 8.0% 24.8% 17.9% 40.2% 2.8% 0.5% 0.6% 0.2% 0.1% 0.2% 0.3%
x264 [info]: mb I I16..4: 6.4% 75.5% 18.1%
x264 [info]: mb P I16..4: 3.4% 17.0% 3.1% P16..4: 38.2% 21.9% 10.6% 0.0% 0.0% skip: 5.7%
x264 [info]: mb B I16..4: 0.4% 1.6% 0.4% B16..8: 39.0% 11.0% 2.6% direct: 7.8% skip:37.2% L0:41.9% L1:44.5% BI:13.6%
x264 [info]: 8x8 transform intra:72.0% inter:66.4%
x264 [info]: coded y,uvDC,uvAC intra: 71.5% 79.3% 50.9% inter: 25.2% 27.9% 3.8%
x264 [info]: i16 v,h,dc,p: 33% 23% 10% 34%
x264 [info]: i8 v,h,dc,ddl,ddr,vr,hd,vl,hu: 16% 10% 8% 8% 12% 12% 12% 10% 12%
x264 [info]: i4 v,h,dc,ddl,ddr,vr,hd,vl,hu: 21% 9% 5% 8% 13% 12% 12% 9% 11%
x264 [info]: i8c dc,h,v,p: 37% 27% 22% 14%
x264 [info]: Weighted P-Frames: Y:97.3% UV:2.9%
x264 [info]: ref P L0: 51.3% 12.2% 15.8% 5.5% 4.4% 3.2% 2.9% 1.6% 1.6% 1.5% 0.1% 0.0%
x264 [info]: ref B L0: 80.1% 9.4% 4.3% 2.0% 1.4% 1.1% 1.0% 0.5% 0.2%
x264 [info]: ref B L1: 95.4% 4.6%
x264 [info]: kb/s:2619.93

Скриншоты

с названием

[cybertorrent.ru].t270.torrent 
Торрент: Зарегистрирован [ 2018-02-15 15:34 ] · B40B28A5F76817FD248B87019CD283A946A47FA1

Скачать .torrent

Скачать

15 KB

Статус: проверено
Скачан: 0 раз
Размер: 2,84 GB
Профиль [ЛС]
Показать сообщения:    

Текущее время: 22-Май 00:07

Часовой пояс: UTC ± 0



Вы не можете начинать темы
Вы не можете отвечать на сообщения
Вы не можете редактировать свои сообщения
Вы не можете удалять свои сообщения
Вы не можете голосовать в опросах
Вы не можете прикреплять файлы к сообщениям
Вы можете скачивать файлы