Статистика раздачи
Размер:  746 MB   |    Зарегистрирован:  3 месяца 11 дней   |    Скачан:  0 раз

Полного источника не было: Никогда

 
   
 
 

lopster ®

Пол:
Не указан
Стаж:
3 месяца 11 дней
Сообщений:
612

Разбуди меня
Жанр: триллер, драма
Год выпуска: 2017
Продолжительность: 01:35:01
Режиссёр: Гийом Проценко
В ролях: Константин Лавроненко, Даниил Воробьев, Елена Морозова, Валерий Гришко, Кирилл Пирогов, Александра Ребенок, Евгений Гришковец, Илья Древнов, Екатерина Волкова, Ирина Вербицкая
Описание: Главная героиня картины это молодая и привлекательная девушка, сотрудница паспортного контроля в местном аэропорте, Женя. -- Кажется, что у Жени есть всё: - хорошая работа, достойная зарплата, квартира в одном из элитных домов. Пора бы задуматься о семье и детях. Но вот в один из дней Андрей, молодой человек Евгении, сообщает, что ему нужно срочно скрыться от местных бандитов. Иначе в противном случае его "уберут по - тихому"...
Сэмпл: http://multi-up.com/1151013
Качество видео: WEB-DLRip (Исходник Razbudi.menya.2017.1080p.WEB-DL.Rus.HDCLUB.mkv)
Формат видео: AVI
Видео: XviD 73, 656x352, (1,85:1), 24,000 fps, 896 Кбит/с, 8 бит
Аудио: Русский (АС3, 2 ch (Front: L R), 48,0 KHz, 192 Kbps)

MediaInfo

Общее
Полное имя : F:\Видеофильмы\В и д е о\Разбуди меня (триллер, драма, Россия 2017 год).avi
Формат : AVI
Формат/Информация : Audio Video Interleave
Размер файла : 746 Мбайт
Продолжительность : 1 ч. 35 м.
Общий поток : 1097 Кбит/сек
Программа кодирования : VirtualDubMod 1.5.10.3 | www.virtualdub-fr.org || (build 2550/release)
Библиотека кодирования : VirtualDubMod build 2550/release
Видео
Идентификатор : 0
Формат : MPEG-4 Visual
Профиль формата : Advanced Simple@L5
Параметр BVOP формата : 2
Параметр QPel формата : Нет
Параметр GMC формата : Без точки перехода
Параметр матрицы формата : Выборочная
Идентификатор кодека : XVID
Идентификатор кодека/Подсказка : XviD
Продолжительность : 1 ч. 35 м.
Битрейт : 896 Кбит/сек
Ширина : 656 пикселей
Высота : 352 пикселя
Соотношение сторон : 1,85:1
Частота кадров : 24,000 кадра/сек
Цветовое пространство : YUV
Субдискретизация насыщенности : 4:2:0
Битовая глубина : 8 бит
Тип развёртки : Прогрессивная
Метод сжатия : С потерями
Бит/(Пиксели*Кадры) : 0.162
Размер потока : 609 Мбайт (82%)
Библиотека кодирования : XviD 73
Аудио
Идентификатор : 1
Формат : AC-3
Формат/Информация : Audio Coding 3
Расширение режима : CM (complete main)
Параметр Endianness формата : Big
Идентификатор кодека : 2000
Продолжительность : 1 ч. 35 м.
Вид битрейта : Постоянный
Битрейт : 192 Кбит/сек
Каналы : 2 канала
Расположение каналов : Front: L R
Частота : 48,0 КГц
Частота кадров : 31,250 кадров/сек (1536 spf)
Метод сжатия : С потерями
Размер потока : 130 Мбайт (18%)
Выравнивание : Разделение по промежуткам
Продолжительность промежутка : 42 мс. (1,00 видеокадр)
Время предзагрузки промежутка : 500 мс.

Скриншот c названием фильма

Скриншоты

[cybertorrent.ru].t275.torrent 
Торрент: Зарегистрирован [ 2018-02-15 15:34 ] · 395A3AE800429E0D46286CA2A731ABD3F936F666

Скачать .torrent

Скачать

15 KB

Статус: проверено
Скачан: 0 раз
Размер: 746 MB
Профиль [ЛС]
Показать сообщения:    

Текущее время: 27-Май 01:41

Часовой пояс: UTC ± 0



Вы не можете начинать темы
Вы не можете отвечать на сообщения
Вы не можете редактировать свои сообщения
Вы не можете удалять свои сообщения
Вы не можете голосовать в опросах
Вы не можете прикреплять файлы к сообщениям
Вы можете скачивать файлы