Статистика раздачи
Размер:  1,37 GB   |    Зарегистрирован:  3 месяца 7 дней   |    Скачан:  0 раз

Полного источника не было: Никогда

 
   
 
 

lopster ®

Пол:
Не указан
Стаж:
3 месяца 7 дней
Сообщений:
612

Коснуться неба
Жанр: мелодрама
Год выпуска: 2007
Продолжительность: 01:29:14
Режиссёр: Леонид Горовец
В ролях: Ирина Гринёва, Андрей Соколов, Николай Добрынин, Анастасия Фурса, Наталья Биляк, Ирина Чериченко, Александр Кочубей, Руслан Герасименко, Татьяна Маркова
Описание: 25-летняя Таисия работает в женском журнале в отделе писем. В ее обязанности входит давать советы читательницам по поводу их семейных проблем. Что она и делает с успехом. А вот в собственной личной жизни Тая никак не может навести порядок. Увидев в газете номер "Телефона доверия", девушка позвонила и начала длительное телефонное общение с психологом. Она рассказала незнакомому человеку о своем первом сильном чувстве – любви к отцу своей подруги Лиды. Рассказывая психологу о событиях семилетней давности, девушка заново их переживает и профессиональный контакт, возникший между Таей и психологом, переходит в иное русло.
Доп. информация: реклама отсутствует
Производство: Star Media
Все раздачи фильма: Коснуться неба

Качество: DVDRip
Формат: AVI
Видео кодек: DivX
Аудио кодек: MP3
Видео: DivX, 720х416 (1,73:1), 25 кадр/с, ~2057 Кбит/сек, 0,275 bit/pixel
Аудио: MP3, 48,0 kHz, 2 ch, 128 Кбит/с

MediaInfo

Код:Общее
Полное имя : C:\otkat\Видео\Коснуться неба\Kosnutsy.Neba.2008.DivX.DVDRip.Kinozal.TV.avi
Формат : AVI
Формат/Информация : Audio Video Interleave
Размер файла : 1,37 Гбайт
Продолжительность : 1 ч. 29 м.
Общий поток : 2192 Кбит/сек
Программа кодирования : VirtualDubMod 1.5.4.1 (build 2178/release)
Библиотека кодирования : VirtualDubMod build 2178/release
Видео
Идентификатор : 0
Формат : MPEG-4 Visual
Параметр BVOP формата : Нет
Параметр QPel формата : Нет
Параметр GMC формата : Без точки перехода
Параметр матрицы формата : Default (H.263)
Идентификатор кодека : DX50
Идентификатор кодека/Подсказка : DivX 5
Продолжительность : 1 ч. 29 м.
Битрейт : 2057 Кбит/сек
Ширина : 720 пикселей
Высота : 416 пикселей
Соотношение сторон : 1,731
Частота кадров : 25,000 кадров/сек
Цветовое пространство : YUV
Субдискретизация насыщенности : 4:2:0
Битовая глубина : 8 бит
Тип развёртки : Прогрессивная
Метод сжатия : С потерями
Бит/(Пиксели*Кадры) : 0.275
Размер потока : 1,28 Гбайт (94%)
Библиотека кодирования : DivX 6.7.0 (UTC 2007-09-20)
Аудио
Идентификатор : 1
Формат : MPEG Audio
Версия формата : Version 1
Профиль формата : Layer 3
Режим : Joint stereo
Расширение режима : MS Stereo
Идентификатор кодека : 55
Идентификатор кодека/Подсказка : MP3
Продолжительность : 1 ч. 29 м.
Вид битрейта : Постоянный
Битрейт : 128 Кбит/сек
Каналы : 2 канала
Частота : 48,0 КГц
Метод сжатия : С потерями
Размер потока : 81,7 Мбайт (6%)
Выравнивание : Соединение по промежуткам
Продолжительность промежутка : 80 мс. (2,00 видеокадра)
Время предзагрузки промежутка : 504 мс.
Библиотека кодирования : LAME3.97
Настройки программы : -m j -V 4 -q 2 -lowpass 17 -b 128
Язык : Russian

Скриншот с названием фильма

Скриншоты


[cybertorrent.ru].t276.torrent 
Торрент: Зарегистрирован [ 2018-02-15 15:34 ] · DDB9BCA0FF97F51695D0D47498D9B439FB38F4E1

Скачать .torrent

Скачать

14 KB

Статус: проверено
Скачан: 0 раз
Размер: 1,37 GB
Профиль [ЛС]
Показать сообщения:    

Текущее время: 23-Май 07:22

Часовой пояс: UTC ± 0



Вы не можете начинать темы
Вы не можете отвечать на сообщения
Вы не можете редактировать свои сообщения
Вы не можете удалять свои сообщения
Вы не можете голосовать в опросах
Вы не можете прикреплять файлы к сообщениям
Вы можете скачивать файлы