Статистика раздачи
Размер:  10,59 GB   |    Зарегистрирован:  9 месяцев 25 дней   |    Скачан:  0 раз

Полного источника не было: Никогда

Личеров:  1  [  0 KB/s  ]  
 
   
 
 

0H0 ®

Пол:
Не указан
Стаж:
9 месяцев 26 дней
Сообщений:
156

Трансформеры / Transformers: Animated
Страна: США, Япония
Жанр: Анимация, Приключения
Продолжительность серии: ~ 00:22:30
Год выпуска: 2008
Перевод: Профессиональный (дублированный)
Русские субтитры: нет
Режиссёр: Мэтт Янгберг, Иринэо Марамба, Кэлвин Ли/Matt Youngberg, Irineo Maramba, Kalvin Lee
Роли озвучивали: Дэвид Кэй, Джефф Беннетт, Бампер Робинсон, Билл Фагербакки, Том Кенни, Кори Бертон, Тара Стронг, Таунсенд Коулмэн, Фил ЛаМарр, Кри Саммер
Роли дублировали: Денис Некрасов, Евгений Вальц, Ольга Зверева
Описание: Злобные Десептиконы появились в Детройте. С помощью Великой Искры Мегатрон может обратить всех роботов Земли в Десептиконов. Но на Землю также прибывают и Оптимус Прайм с Автоботами, они планируют остановить Мегатрона и помешать его коварным планам.
Ссылка на предыдущие и альтернативные раздачи: http://cybertorrent.ru/tracker.php?nm=Transformers%20Animated
Семпл: http://multi-up.com/1112315
Качество: HDTVRip 720p
Формат: MKV
Видео: AVC, 1280x720 (16:9), 23.976 fps, ~4500 Kbps
Аудио 1: AC3, 48 kHz, 2 channels, 192 kbps, rus
Аудио 2: AC3, 48 kHz, 2 channels, 448 kbps, eng
Субтитры: отсутствуют

Список серий

The Elite Guard
The Return of the Headmaster
Mission Accomplished
Garbage in, Garbage out
Velocity
Rise of the Constructicons
A Fistful of Energon
S.U.V.: Society of Ultimate Villainy
Autoboot Camp
Black Friday
Sari, No One's Home
A Bridge Too Close: Part I
A Bridge Too Close: Part II

Подробные технические данные

General
Unique ID : 184334961328334105314203095098177986532 (0x8AAD9F47514E12BF8AADCB659CCD9FE4)
Format : Matroska
Format version : Version 4 / Version 2
File size : 838 MiB
Duration : 22mn 46s
Overall bit rate : 5 144 Kbps
Encoded date : UTC 2016-08-01 18:53:32
Writing application : mkvmerge v9.1.0 ('Little Earthquakes') 64bit
Writing library : libebml v1.3.3 + libmatroska v1.4.4
Video
ID : 1
Format : AVC
Format/Info : Advanced Video Codec
Format profile : High@L4.1
Format settings, CABAC : Yes
Format settings, ReFrames : 4 frames
Codec ID : V_MPEG4/ISO/AVC
Duration : 22mn 46s
Bit rate : 4 502 Kbps
Width : 1 280 pixels
Height : 720 pixels
Display aspect ratio : 16:9
Frame rate mode : Constant
Frame rate : 23.976 (24000/1001) fps
Color space : YUV
Chroma subsampling : 4:2:0
Bit depth : 8 bits
Scan type : Progressive
Bits/(Pixel*Frame) : 0.204
Stream size : 733 MiB (88%)
Writing library : x264 core 125 r2200 999b753
Encoding settings : cabac=1 / ref=3 / deblock=1:1:0 / analyse=0x3:0x113 / me=hex / subme=6 / psy=1 / psy_rd=1.00:0.00 / mixed_ref=1 / me_range=16 / chroma_me=1 / trellis=1 / 8x8dct=1 / cqm=0 / deadzone=21,11 / fast_pskip=1 / chroma_qp_offset=-4 / threads=6 / lookahead_threads=1 / sliced_threads=0 / nr=0 / decimate=1 / interlaced=0 / bluray_compat=0 / constrained_intra=0 / bframes=3 / b_pyramid=2 / b_adapt=1 / b_bias=0 / direct=1 / weightb=1 / open_gop=0 / weightp=2 / keyint=240 / keyint_min=23 / scenecut=40 / intra_refresh=0 / rc_lookahead=40 / rc=2pass / mbtree=1 / bitrate=4502 / ratetol=1.0 / qcomp=0.60 / qpmin=10 / qpmax=51 / qpstep=4 / cplxblur=20.0 / qblur=0.5 / ip_ratio=1.40 / aq=1:1.00
Default : Yes
Forced : No
Audio #1
ID : 2
Format : AC-3
Format/Info : Audio Coding 3
Mode extension : CM (complete main)
Format settings, Endianness : Big
Codec ID : A_AC3
Duration : 22mn 46s
Bit rate mode : Constant
Bit rate : 192 Kbps
Channel(s) : 2 channels
Channel positions : Front: L R
Sampling rate : 48.0 KHz
Frame rate : 31.250 fps (1536 spf)
Compression mode : Lossy
Stream size : 31.3 MiB (4%)
Title : dub
Language : Russian
Default : Yes
Forced : No
Audio #2
ID : 3
Format : AC-3
Format/Info : Audio Coding 3
Mode extension : CM (complete main)
Format settings, Endianness : Big
Codec ID : A_AC3
Duration : 22mn 46s
Bit rate mode : Constant
Bit rate : 448 Kbps
Channel(s) : 2 channels
Channel positions : Front: L R
Sampling rate : 48.0 KHz
Frame rate : 31.250 fps (1536 spf)
Compression mode : Lossy
Stream size : 73.0 MiB (9%)
Language : English
Default : No
Forced : No

Скриншоты

[cybertorrent.ru].t2771.torrent 
Торрент: Зарегистрирован [ 2018-02-16 14:35 ] · 2D535567C738D91BE0ADC13792DD4D3FF5F1D4A8

Скачать .torrent

Скачать

28 KB

Статус: проверено
Скачан: 0 раз
Размер: 10,59 GB
Профиль [ЛС]
Показать сообщения:    

Текущее время: 13-Дек 17:50

Часовой пояс: UTC ± 0



Вы не можете начинать темы
Вы не можете отвечать на сообщения
Вы не можете редактировать свои сообщения
Вы не можете удалять свои сообщения
Вы не можете голосовать в опросах
Вы не можете прикреплять файлы к сообщениям
Вы можете скачивать файлы
Torrents24.ru открытый BitTorrent Torrents24.pl открытый BitTorrent CyberTorrent.ru открытый BitTorrent BtList.ru рейтинг BitTorrent трекеров Яндекс.Метрика