Статистика раздачи
Размер:  1,76 GB   |    Зарегистрирован:  3 месяца 7 дней   |    Скачан:  0 раз

Полного источника не было: Никогда

 
   
 
 

lopster ®

Пол:
Не указан
Стаж:
3 месяца 7 дней
Сообщений:
612

Защитники«Отряд советских супергероев»
Жанр: Фантастика, фэнтези, боевик, приключения
Год выпуска: 2017
Продолжительность: 01:29:04
Режиссёр: Сарик Андреасян
В ролях: Антон Пампушный, Санжар Мади, Себастьян Сисак, Алина Ланина, Станислав Ширин, Валерия Шкирандо, Вячеслав Разбегаев, Александр Семенов, Владимир Бутенко, Мила Максимова
Описание: Во времена Холодной войны секретная организация «Патриот» создала отряд супергероев, в который вошли участники из различных советских республик. Долгие годы героям приходилось скрывать свою сущность, однако в тяжелые для страны времена они вновь берутся за дело.
Доп. информация:
Релиз группы:
Сохранены оригинальные главы как на Bluray
Качество видео: BDRip-AVC Защитники (2017) Blu-ray RUS 1080p AVC DTS 5.1
Формат видео: MKV
Видео: 1056x442 (2:40:1), 24,00 fps, 2232 Кbps, 0.207 bit/pixe
Аудио: 48 kHz, AC3 Dolby Digital, 3/2 (L,C,R,l,r) + LFE ch, ~448.00 kbps avg

MediaInfo

General
Unique ID : 223407700178337545575907803551417351319 (0xA812C209895466AC86E541D05D4DBC97)
Complete name : E:\Мои рипы\Защитники 1.8 Gb\Zashchitniki by_IVAN@190282.mkv
Format : Matroska
Format version : Version 4 / Version 2
File size : 1.76 GiB
Duration : 1h 28mn
Overall bit rate : 2 827 Kbps
Movie name : Zashchitniki by_IVAN@190282
Encoded date : UTC 2017-04-24 10:08:56
Writing application : mkvmerge v10.0.0 ('To Drown In You') 64bit
Writing library : libebml v1.3.4 + libmatroska v1.4.5
DURATION : 01:28:57.120000000
NUMBER_OF_FRAMES : 166785
NUMBER_OF_BYTES : 298878720
_STATISTICS_WRITING_APP : mkvmerge v10.0.0 ('To Drown In You') 64bit
_STATISTICS_WRITING_DATE_UTC : 2017-04-24 10:08:56
_STATISTICS_TAGS : BPS DURATION NUMBER_OF_FRAMES NUMBER_OF_BYTES
Attachment : Yes
Video
ID : 1
Format : AVC
Format/Info : Advanced Video Codec
Format profile : High@L4.1
Format settings, CABAC : Yes
Format settings, ReFrames : 11 frames
Codec ID : V_MPEG4/ISO/AVC
Duration : 1h 28mn
Bit rate : 2 322 Kbps
Width : 1 056 pixels
Height : 442 pixels
Display aspect ratio : 2.40:1
Frame rate mode : Constant
Frame rate : 24.000 fps
Color space : YUV
Chroma subsampling : 4:2:0
Bit depth : 8 bits
Scan type : Progressive
Bits/(Pixel*Frame) : 0.207
Stream size : 1.44 GiB (82%)
Title : Zashchitniki by_IVAN@190282
Writing library : x264 core 148 r2762 90a61ec
Encoding settings : cabac=1 / ref=11 / deblock=1:-3:-3 / analyse=0x3:0x113 / me=umh / subme=11 / psy=1 / psy_rd=1.00:0.05 / mixed_ref=1 / me_range=48 / chroma_me=1 / trellis=2 / 8x8dct=1 / cqm=0 / deadzone=21,11 / fast_pskip=0 / chroma_qp_offset=-3 / threads=6 / lookahead_threads=6 / sliced_threads=0 / nr=0 / decimate=1 / interlaced=0 / bluray_compat=0 / constrained_intra=0 / bframes=16 / b_pyramid=2 / b_adapt=2 / b_bias=0 / direct=3 / weightb=1 / open_gop=0 / weightp=2 / keyint=240 / keyint_min=24 / scenecut=40 / intra_refresh=0 / rc_lookahead=60 / rc=crf / mbtree=0 / crf=18.1 / qcomp=0.60 / qpmin=0 / qpmax=69 / qpstep=4 / vbv_maxrate=50000 / vbv_bufsize=62500 / crf_max=0.0 / nal_hrd=none / filler=0 / ip_ratio=1.40 / pb_ratio=1.30 / aq=3:0.70
Language : English
Default : Yes
Forced : No
Color primaries : BT.709
Transfer characteristics : BT.709
Matrix coefficients : BT.709
DURATION : 01:28:57.042000000
NUMBER_OF_FRAMES : 128089
NUMBER_OF_BYTES : 1585496933
_STATISTICS_WRITING_APP : mkvmerge v10.0.0 ('To Drown In You') 64bit
_STATISTICS_WRITING_DATE_UTC : 2017-04-24 10:08:56
_STATISTICS_TAGS : BPS DURATION NUMBER_OF_FRAMES NUMBER_OF_BYTES
Audio
ID : 2
Format : AC-3
Format/Info : Audio Coding 3
Mode extension : CM (complete main)
Format settings, Endianness : Big
Codec ID : A_AC3
Duration : 1h 28mn
Bit rate mode : Constant
Bit rate : 448 Kbps
Channel(s) : 6 channels
Channel positions : Front: L C R, Side: L R, LFE
Sampling rate : 48.0 KHz
Bit depth : 16 bits
Compression mode : Lossy
Stream size : 285 MiB (16%)
Title : Rus
Default : Yes
Forced : No
Menu
00:00:00.000 : en:00:00:00.000
00:00:52.208 : en:00:00:52.208
00:10:50.416 : en:00:10:50.416
00:21:24.375 : en:00:21:24.375
00:33:35.750 : en:00:33:35.750
00:44:08.208 : en:00:44:08.208
00:55:49.083 : en:00:55:49.083
01:06:44.416 : en:01:06:44.416
01:17:46.833 : en:01:17:46.833

x264 log

VIDEO ENCODING
x264 [info]: frame I:966 Avg QP:16.25 size: 66290 PSNR Mean Y:46.73 U:51.57 V:50.79 Avg:47.59 Global:46.73
x264 [info]: frame P:34110 Avg QP:17.40 size: 22566 PSNR Mean Y:45.20 U:54.29 V:53.43 Avg:46.17 Global:45.13
x264 [info]: frame B:93013 Avg QP:19.69 size: 8082 PSNR Mean Y:44.25 U:49.79 V:48.54 Avg:45.17 Global:44.16
x264 [info]: consecutive B-frames: 6.7% 4.4% 8.2% 26.2% 18.8% 22.8% 6.8% 2.5% 1.5% 0.6% 0.4% 0.2% 0.4% 0.2% 0.1% 0.0% 0.2%
x264 [total]: encoded 128089 frames, 2.27 fps, 2376.59 kb/s

Скриншот c названием фильма

Скриншоты

Убедительная просьба пожалуйста кто скачал не бросайте раздачу!!!
[cybertorrent.ru].t279.torrent 
Торрент: Зарегистрирован [ 2018-02-15 15:34 ] · 73B5F960AB08158CD786951299923E589286F1EE

Скачать .torrent

Скачать

18 KB

Статус: проверено
Скачан: 0 раз
Размер: 1,76 GB
Профиль [ЛС]
Показать сообщения:    

Текущее время: 23-Май 07:20

Часовой пояс: UTC ± 0



Вы не можете начинать темы
Вы не можете отвечать на сообщения
Вы не можете редактировать свои сообщения
Вы не можете удалять свои сообщения
Вы не можете голосовать в опросах
Вы не можете прикреплять файлы к сообщениям
Вы можете скачивать файлы