Статистика раздачи
Размер:  246 MB   |    Зарегистрирован:  3 месяца 7 дней   |    Скачан:  0 раз

Полного источника не было: Никогда

 
   
 
 

lopster ®

Пол:
Не указан
Стаж:
3 месяца 7 дней
Сообщений:
612

Рождественский ангел
Жанр: семейный, короткометражный
Год выпуска: 2003
Продолжительность: 00:11:39
Режиссёр: Илья Литвак
В ролях: Владимир Цымбал, Маргарита Удальцова, Ольга Сытенко, Александр Ковтунец, Антон Муравьёв
Описание: В рождественскую ночь обедневшая дворянка вынуждена просить милостыню, чтобы накормить своих четверых детей. Никто из прохожих не откликается на её просьбу о помощи, и когда она приходит в отчаяние – Господь посылает ей маленькую девочку, которая не только помогает ей в беде, но и устраивает для её детей настоящий праздник.
Сэмпл: http://multi-up.com/1151545
Качество видео: DVDRip-AVC
Формат видео: MKV
Видео: AVC, 696x570 (4:3), 25.000 fps, 2 500 Kbps (0.252 bit/pixel)
Аудио: AC-3, 48.0 KHz, 6 ch, 448 Kbps, CBR (Russian)

MediaInfo

General
Unique ID : 213189079645696770179200223591072655662 (0xA062B925A3FFA89694D4FC8F3DB5E92E)
Complete name : C:\Users\User\Downloads\Рождественский ангел.mkv
Format : Matroska
Format version : Version 2
File size : 246 MiB
Duration : 11mn 39s
Overall bit rate : 2 952 Kbps
Encoded date : UTC 2016-12-28 13:20:01
Writing application : mkvmerge v7.8.0 ('River Man') 32bit built on Apr 3 2015 12:11:22
Writing library : libebml v1.3.1 + libmatroska v1.4.2
Video
ID : 1
Format : AVC
Format/Info : Advanced Video Codec
Format profile : High@L4.1
Format settings, CABAC : Yes
Format settings, ReFrames : 12 frames
Codec ID : V_MPEG4/ISO/AVC
Duration : 11mn 39s
Bit rate : 2 500 Kbps
Width : 696 pixels
Height : 570 pixels
Display aspect ratio : 4:3
Frame rate mode : Constant
Frame rate : 25.000 fps
Color space : YUV
Chroma subsampling : 4:2:0
Bit depth : 8 bits
Scan type : Progressive
Bits/(Pixel*Frame) : 0.252
Stream size : 204 MiB (83%)
Writing library : x264 core 146 r2538 121396c
Encoding settings : cabac=1 / ref=12 / deblock=1:-2:-2 / analyse=0x3:0x133 / me=umh / subme=10 / psy=1 / psy_rd=1.05:0.10 / mixed_ref=1 / me_range=32 / chroma_me=1 / trellis=2 / 8x8dct=1 / cqm=0 / deadzone=21,11 / fast_pskip=0 / chroma_qp_offset=-3 / threads=3 / lookahead_threads=1 / sliced_threads=0 / nr=0 / decimate=0 / interlaced=0 / bluray_compat=0 / constrained_intra=0 / bframes=16 / b_pyramid=2 / b_adapt=2 / b_bias=0 / direct=3 / weightb=1 / open_gop=0 / weightp=2 / keyint=250 / keyint_min=25 / scenecut=40 / intra_refresh=0 / rc=2pass / mbtree=0 / bitrate=2500 / ratetol=1.0 / qcomp=0.63 / qpmin=0 / qpmax=69 / qpstep=4 / cplxblur=20.0 / qblur=0.5 / ip_ratio=1.25 / pb_ratio=1.30 / aq=1:1.00
Language : Russian
Default : Yes
Forced : No
Color primaries : BT.601 PAL
Transfer characteristics : BT.470 System B, BT.470 System G
Matrix coefficients : BT.601
Audio
ID : 2
Format : AC-3
Format/Info : Audio Coding 3
Mode extension : CM (complete main)
Format settings, Endianness : Big
Codec ID : A_AC3
Duration : 11mn 39s
Bit rate mode : Constant
Bit rate : 448 Kbps
Channel(s) : 6 channels
Channel positions : Front: L C R, Side: L R, LFE
Sampling rate : 48.0 KHz
Bit depth : 16 bits
Compression mode : Lossy
Delay relative to video : 400ms
Stream size : 37.3 MiB (15%)
Language : Russian
Default : Yes
Forced : No

Скриншот c названием фильма

Скриншоты

[cybertorrent.ru].t280.torrent 
Торрент: Зарегистрирован [ 2018-02-15 15:34 ] · BB607260850FC716B935671EE15FABB02C8CD02F

Скачать .torrent

Скачать

20 KB

Статус: проверено
Скачан: 0 раз
Размер: 246 MB
Профиль [ЛС]
Показать сообщения:    

Текущее время: 23-Май 07:21

Часовой пояс: UTC ± 0



Вы не можете начинать темы
Вы не можете отвечать на сообщения
Вы не можете редактировать свои сообщения
Вы не можете удалять свои сообщения
Вы не можете голосовать в опросах
Вы не можете прикреплять файлы к сообщениям
Вы можете скачивать файлы